Начать новую тему Ответить на тему
Статистика раздачи
Размер: 1.86 ГБ | Добавлен: 24 авг 2016, 11:47 | Скачали: 0
Сидеров: 2  [0 байт/сек]    Личеров: 0  [0 байт/сек]
Пред. тема | След. тема 

Автор
Сообщение

СообщениеДобавлено: 24 авг 2016, 11:47 

Ответить с цитатой 

Gillan ‎/ Glory Road

Жанр: Blues Rock,Hard Rock
Год выпуска: 1980
Лейбл: Virgin – VV-33-055Y
Страна-производитель: Portugal
Аудио кодек: FLAC
Тип рипа: image+.cue
Формат записи: 24/192
Формат раздачи: 24/192
Продолжительность: 43:46
Треклист:
A1 Unchain Your Brain Written-By – Bernie Tormé, Ian Gillan, John McCoy 3:12
A2 Are You Sure Written-By – Bernie Tormé, Ian Gillan, John McCoy 4:07
A3 Time And Again Written-By – Bernie Tormé, Ian Gillan, John McCoy 5:08
A4 No Easy Way Written-By – Bernie Tormé, Ian Gillan, John McCoy 6:38
A5 Sleeping On The Job Written-By – Colin Towns, Ian Gillan 3:13
B1 On The Rocks Written-By – Colin Towns, Ian Gillan 6:42
B2 If You Believe Me Written-By – Bernie Tormé, Ian Gillan, John McCoy, Mick Underwood 7:37
B3 Running, White Face, City Boy Written-By – Colin Towns 3:13
B4 Nervous Written-By – Colin Towns, Ian Gillan 3:55

Источник оцифровки: автором раздачи
Код класса состояния винила: VG+
Устройство воспроизведения: Omnitronic BD-1100 M / DENON DL-103
Предварительный усилитель: NAD PP2 M / Arcam Delta
АЦП: M-Audio Audiophile 192
Программа-оцифровщик: Sound Forge Pro 10
Обработка: Sound Forge Pro 10
REM GENRE Blues Rock, Hard Rock
REM DATE 1980
REM MViktor_VINYLRIP
REM Virgin – VV-33-055Y, Portugal
REM Producer - Ian Gillan
PERFORMER "Gillan"
TITLE "Glory Road"
FILE "VV-33-055 Y I.flac" WAVE
TRACK 01 AUDIO
TITLE "Unchain Your Brain"
PERFORMER "Bernie Torme, Ian Gillan, John McCoy"
INDEX 01 00:00:00
TRACK 02 AUDIO
TITLE "Are You Sure"
PERFORMER "Bernie Torme, Ian Gillan, John McCoy"
INDEX 01 03:11:40
TRACK 03 AUDIO
TITLE "Time And Again"
PERFORMER "Bernie Torme, Ian Gillan, John McCo"
INDEX 01 07:18:40
TRACK 04 AUDIO
TITLE "No Easy Way"
PERFORMER "Bernie Torme, Ian Gillan, John McCoy"
INDEX 01 12:24:55
TRACK 05 AUDIO
TITLE "Sleeping On The Job"
PERFORMER "Colin Towns, Ian Gillan"
INDEX 01 19:02:30
FILE "VV-33-055 Y II.flac" WAVE
TRACK 06 AUDIO
TITLE "On The Rocks"
PERFORMER "Colin Towns, Ian Gillan"
INDEX 01 00:00:00
TRACK 07 AUDIO
TITLE "If You Believe Me"
PERFORMER "Bernie Torme, Ian Gillan, John McCoy, Mick Underwood"
INDEX 01 06:40:40
TRACK 08 AUDIO
TITLE "Running, White Face, City Boy"
PERFORMER "Colin Towns"
INDEX 01 14:16:00
TRACK 09 AUDIO
TITLE "Nervous"
PERFORMER "Colin Towns, Ian Gillan"
INDEX 01 17:29:50

Две минуты начала каждой стороны

Bass – John McCoy
Drums – Mick Underwood
Flute – Colin Towns
Guitar – Bernie Tormé
Keyboards – Colin Towns
Mixed By – John McCoy, Paul Watkins
Vocals – Ian Gillan
Правила, инструкции, FAQ!!!
Торрент  Добавлен [24 авг 2016, 11:47] Скачать торрент Магнет ссылка
Скачать торрент
[ Размер 19.49 КБ / Просмотров 16 ]

Статус
Проверен 
 
Размер  1.86 ГБ
Приватный: Нет (DHT включён)
.torrent скачан  0
 


     Отправить личное сообщение
   
Страница 1 из 1
Показать сообщения за:  Поле сортировки  
Начать новую тему Ответить на тему


Сейчас этот форум просматривают: нет зарегистрированных пользователей и гости: 0


Вы не можете начинать темы
Вы не можете отвечать на сообщения
Вы не можете редактировать свои сообщения
Вы не можете удалять свои сообщения
Вы не можете добавлять вложения

Перейти:  
cron