Начать новую тему Ответить на тему
Статистика раздачи
Размер: 1.71 ГБ | Добавлен: 24 авг 2016, 14:18 | Скачали: 0
Сидеров: 1  [0 байт/сек]    Личеров: 0  [0 байт/сек]
Пред. тема | След. тема 

Автор
Сообщение

СообщениеДобавлено: 24 авг 2016, 14:18 

Ответить с цитатой 

Hendrix – Band Of Gypsys

Жанр: Blues Rock, Classic Rock
Носитель: LP
Год выпуска: 1997 (Remastered)
Год первой публикации: 1970
Лейбл: Classic Records ‎(ST-472)
Страна-производитель: US
Аудио кодек: FLAC
Тип рипа: image+.cue
Формат записи: 24/192
Формат раздачи: 24/192
Продолжительность: 00:45:46
Треклист:
01. Who Knows (9:35)
02. Machine Gun (12:42)
03. Changes (5:11)
04. Power To Love (7:00)
05. Message To Love (5:27)
06. We Gotta Live Together (5:50)

Источник оцифровки: автором раздачи
Код класса состояния винила: Ex
Устройство воспроизведения: Pro-Ject 1-Xpression III
Головка звукоснимателя: Goldring 1012 GX
Предварительный усилитель: Pro-Ject Tube Box II
АЦП: ESI Juli@
Программа-оцифровщик: WavePurity
Обработка: Нет
В раздаче
Доп. информация:
Код:
foobar2000 1.3.2 / Dynamic Range Meter 1.1.1
log date: 2015-02-12 11:53:28

--------------------------------------------------------------------------------
Analyzed: Hendrix / Band Of Gypsys
--------------------------------------------------------------------------------

DR         Peak         RMS     Duration Track
--------------------------------------------------------------------------------
DR13      -1.22 dB   -17.36 dB      9:35 01-Who Knows
DR13      -2.04 dB   -17.74 dB     12:42 02-Machine Gun
DR13      -2.07 dB   -17.65 dB      5:11 03-Changes
DR14       0.00 dB   -17.29 dB      7:00 04-Power To Love
DR12      -3.02 dB   -17.37 dB      5:27 05-Message To Love
DR12      -1.65 dB   -17.21 dB      5:50 06-We Gotta Live Together
--------------------------------------------------------------------------------

Number of tracks:  6
Official DR value: DR13

Samplerate:        192000 Hz
Channels:          2
Bits per sample:   24
Bitrate:           5150 kbps
Codec:             FLAC
================================================================================
Правила, инструкции, FAQ!!!
Торрент  Добавлен [24 авг 2016, 14:18] Скачать торрент Магнет ссылка
Скачать торрент
[ Размер 17.83 КБ / Просмотров 5 ]

Статус
Проверен 
 
Размер  1.71 ГБ
Приватный: Нет (DHT включён)
.torrent скачан  0
 


     Отправить личное сообщение
   
Страница 1 из 1
Показать сообщения за:  Поле сортировки  
Начать новую тему Ответить на тему


Сейчас этот форум просматривают: нет зарегистрированных пользователей и гости: 0


Вы не можете начинать темы
Вы не можете отвечать на сообщения
Вы не можете редактировать свои сообщения
Вы не можете удалять свои сообщения
Вы не можете добавлять вложения

Перейти:  
cron
cron