Начать новую тему Ответить на тему
Статистика раздачи
Размер: 1.68 ГБ | Добавлен: 24 авг 2016, 12:04 | Скачали: 0
Сидеров: 2  [0 байт/сек]    Личеров: 0  [0 байт/сек]
Пред. тема | След. тема 

Автор
Сообщение

СообщениеДобавлено: 24 авг 2016, 12:04 

Ответить с цитатой 

Arlen Roth / Hot Pickups (Japan)
OFF
Жанр: Blues/ Rock
Год выпуска: 1980
Лейбл: Rounder/Trio Rec.- AW-2060
Страна-производитель:Japan
Аудио кодек: FLAC
Тип рипа: image+.cue
Формат записи: 32/192
Формат раздачи: 24/192
Продолжительность: 00:40:28
Источник оцифровки: автором раздачи
Код класса состояния винила: NM
Устройство воспроизведения:Pioneer PL-30L
Головка звукоснимателя: Denon DL-103M
Предварительный усилитель: NAD PP2iM
АЦП: Xonar Essence STX
Программа-оцифровщик: Sound Forge Pro 10
Обработка: No
Arlen Roth

A1 - The Kids On The Block 3:38
A2 - Not Her Usual Man 3:12
A3 - Poor Side Of Town 3:55
A4 - When A Man Loves A Woman 4:22
A5 - Restless Age 4:47

B1 - Treat Her Right 3:31
B2 - North Sea 4:55
B3 - On A Cold, Dark Night 5:09
B4 - August Nights 4:46
Да/Yes


Credits:

Ivan Elias - Bass
Michel Braun - Drums
Guitar – Brad Whitford
Arlen Ronh - Guitar [Lead, Rhythm, Acoustic, Slide], Backing Vocals
Dean Kraun - Piano and Organ

Mastering By – BobLudwig and Howie Weinberg and Masterdisk,NYC.
Photography – David Gahr
Producer and Arranged by Arlen Roth
Associate Producer - Kevin Kelly
Artwork By [Illustration] – Ingrid Haenke
Design - David Roth
Recorded and mixed by Kevin Kelly at the Workshoppe Recording Studios,Douglastone,N.Y. July 1979-February 1980

Notes:

©1980 Trio Records Ltd.,
1980 Rounder Records Corp. USA

Barcode and Other Identifiers

Matrix / Runout (Side A): AW-2060 A 111 +
Matrix / Runout (Side B): AW-2060 B 111 +
TITLE "Hot Pickups"
PERFORMER "Arlen Roth"
FILE "Hot Pickups.flac" WAVE
TRACK 01 AUDIO
TITLE "The Kids On The Block"
PERFORMER "Arlen Roth"
INDEX 01 00:00:00
TRACK 02 AUDIO
TITLE "Not Her Usual Man"
PERFORMER "Arlen Roth"
INDEX 01 03:50:05
TRACK 03 AUDIO
TITLE "Poor Side Of Town"
PERFORMER "Arlen Roth"
INDEX 01 07:11:15
TRACK 04 AUDIO
TITLE "When A Man Loves A Woman"
PERFORMER "Arlen Roth"
INDEX 01 11:18:23
TRACK 05 AUDIO
TITLE "Restless Age"
PERFORMER "Arlen Roth"
INDEX 01 15:53:68
TRACK 06 AUDIO
TITLE "Treat Her Right"
PERFORMER "Arlen Roth"
INDEX 01 21:00:63
TRACK 07 AUDIO
TITLE "North Sea"
PERFORMER "Arlen Roth"
INDEX 01 24:44:58
TRACK 08 AUDIO
TITLE "On A Cold, Dark Night"
PERFORMER "Arlen Roth"
INDEX 01 29:58:30
TRACK 09 AUDIO
TITLE "August Nights"
PERFORMER "Arlen Roth"
INDEX 01 35:20:55
Все материалы представлены исключительно в ознакомительных целях
Правила, инструкции, FAQ!!!
Торрент  Добавлен [24 авг 2016, 12:04] Скачать торрент Магнет ссылка
Скачать торрент
[ Размер 17.76 КБ / Просмотров 11 ]

Статус
Проверен 
 
Размер  1.68 ГБ
Приватный: Нет (DHT включён)
.torrent скачан  0
 


     Отправить личное сообщение
   
Страница 1 из 1
Показать сообщения за:  Поле сортировки  
Начать новую тему Ответить на тему


Сейчас этот форум просматривают: нет зарегистрированных пользователей и гости: 0


Вы не можете начинать темы
Вы не можете отвечать на сообщения
Вы не можете редактировать свои сообщения
Вы не можете удалять свои сообщения
Вы не можете добавлять вложения

Перейти:  
cron