Начать новую тему Ответить на тему
Статистика раздачи
Размер: 1.37 ГБ | Добавлен: 24 авг 2016, 12:06 | Скачали: 1
Сидеров: 2  [0 байт/сек]    Личеров: 0  [0 байт/сек]
Пред. тема | След. тема 

Автор
Сообщение

СообщениеДобавлено: 24 авг 2016, 12:06 

Ответить с цитатой 

Mountain / Live: The Road Goes Ever On (Japan)
Mountain
Жанр: Blues/Hard Rock
Год выпуска: 1972
Лейбл: Windfall Records – BLPL 7WF
Страна-производитель:Japan
Аудио кодек: FLAC
Тип рипа: image+.cue
Формат записи: 32/192
Формат раздачи: 24/192
Продолжительность: 00:34:32
Источник оцифровки: автором раздачи
Код класса состояния винила: NM
Устройство воспроизведения:Pioneer PL-30L
Головка звукоснимателя: Denon DL-103M
Предварительный усилитель: NAD PP2iM
АЦП: Xonar Essence STX
Программа-оцифровщик: Sound Forge Pro 10
Обработка: Sound Forge Pro 10:
Mountain

A1 - Long Red 5:50
Written-By – Pappalardi*, Ventura*, West*, Landsberg*
A2 - Waiting To Take You Away 4:40
Written-By – West*
A3 - Crossroader 6:20
Written-By – Pappalardi*, Collins*

B - Nantucket Sleighride 17:38
Written-By – Felix Pappalardi, Gail Collins
NO/
Credits:
Art Direction – Beverly Weinstein
Bass, Vocals – Felix Pappalardi
Cover, Photography By – Gail Collins
Drums – Corky Laing
Engineer – Bob D'Orleans
Executive Producer – Bud Prager
Guitar, Vocals – Leslie West
Keyboards – Steve Knight
Producer – Felix Pappalardi
Notes:
1972 Windfall Music Enterprises, Inc.

Exclusively distributed by CBS/Sony Inc. (Tokyo, Japan)

Barcode and Other Identifiers:
Matrix / Runout (Side 1): BLPL 7A1
Matrix / Runout (Side 2): BLPL 7B1
TITLE "Live The Road Goes Ever On"
PERFORMER "Mountain"
FILE "Live The Road Goes Ever On.flac" WAVE
TRACK 01 AUDIO
TITLE "Long Red"
PERFORMER "Mountain"
INDEX 01 00:00:00
TRACK 02 AUDIO
TITLE "Waiting To Take You Away"
PERFORMER "Mountain"
INDEX 01 05:49:11
TRACK 03 AUDIO
TITLE "Crossroader"
PERFORMER "Mountain"
INDEX 01 10:29:44
TRACK 04 AUDIO
TITLE "Nantucket Sleighride"
PERFORMER "Mountain"
INDEX 01 16:51:39
Pre LIve / /
Все материалы представлены исключительно в ознакомительных целях
Правила, инструкции, FAQ!!!
Торрент  Добавлен [24 авг 2016, 12:06] Скачать торрент Магнет ссылка
Скачать торрент
[ Размер 14.69 КБ / Просмотров 10 ]

Статус
Проверен 
 
Размер  1.37 ГБ
Приватный: Нет (DHT включён)
.torrent скачан  1
 


     Отправить личное сообщение
   
Страница 1 из 1
Показать сообщения за:  Поле сортировки  
Начать новую тему Ответить на тему


Сейчас этот форум просматривают: нет зарегистрированных пользователей и гости: 0


Вы не можете начинать темы
Вы не можете отвечать на сообщения
Вы не можете редактировать свои сообщения
Вы не можете удалять свои сообщения
Вы не можете добавлять вложения

Перейти:  
cron
cron