Начать новую тему Ответить на тему
Статистика раздачи
Размер: 1.62 ГБ | Добавлен: 16 мар 2014, 00:53 | Скачали: 30
Сидеров: 5  [0 байт/сек]    Личеров: 2  [0 байт/сек]
Пред. тема | След. тема 

Автор
Сообщение

СообщениеДобавлено: 16 мар 2014, 00:53 

Ответить с цитатой 


Blessthefall
- Дискография





Год выпуска: 2006-2013
Жанр: Post-Hardcore
Продолжительность: 03:53:24
Тип издания: Дискография
Страна: США



Треклист:

01. A Message To The Unknown
02. Guys Like You Make Us Look Bad
03. Higinia
04. Could Tell A Love
05. Rise Up
06. Times Like These
07. Pray
08. With Eyes Wide Shut
09. Wait For Tomorrow
10. Black Rose Dying
11. His Last Walk

Продолжительность: 00:46:11

Код:
Код:
------------------------------------------------------------

EAC extraction logfile from 3. December 2006, 23:06 for CD
His Last Walk / blessthefall

Used drive  : TSSTcorpCDW/DVD TS-H492C   Adapter: 1  ID: 0
Read mode   : Secure with NO C2, accurate stream, disable cache
Read offset correction : 6
Overread into Lead-In and Lead-Out : No

Used output format : C:\Program Files\Exact Audio Copy\flac.exe   (User Defined Encoder)
                     128 kBit/s
                     Additional command line options :
-V -8 -T "artist=%a" -T "title=%t" -T "album=%g" -T "date=%y" -T "tracknumber=%n" -T "genre=%m" %s

Other options      :
    Fill up missing offset samples with silence : Yes
    Delete leading and trailing silent blocks : No
    Native Win32 interface for Win NT & 2000

Track  1
     Filename h:\music\Bless the Fall - His Last Walk\01 - A Message To The Unknown.wav

     Peak level 99.8 %
     Track quality 100.0 %
     Test CRC 5D55DC16
     Copy CRC 5D55DC16
     Copy OK

Track  2
     Filename h:\music\Bless the Fall - His Last Walk\02 - Guys Like You Make Us Look Bad.wav

     Peak level 99.8 %
     Track quality 100.0 %
     Test CRC 778811E3
     Copy CRC 778811E3
     Copy OK

Track  3
     Filename h:\music\Bless the Fall - His Last Walk\03 - Higinia.wav

     Peak level 99.8 %
     Track quality 100.0 %
     Test CRC E13F1CAF
     Copy CRC E13F1CAF
     Copy OK

Track  4
     Filename h:\music\Bless the Fall - His Last Walk\04 - Could Tell A Love.wav

     Peak level 99.8 %
     Track quality 100.0 %
     Test CRC 85D242BA
     Copy CRC 85D242BA
     Copy OK

Track  5
     Filename h:\music\Bless the Fall - His Last Walk\05 - Rise Up.wav

     Peak level 99.8 %
     Track quality 100.0 %
     Test CRC 58DD5B88
     Copy CRC 58DD5B88
     Copy OK

Track  6
     Filename h:\music\Bless the Fall - His Last Walk\06 - Times Like These.wav

     Peak level 99.8 %
     Track quality 100.0 %
     Test CRC 252863EA
     Copy CRC 252863EA
     Copy OK

Track  7
     Filename h:\music\Bless the Fall - His Last Walk\07 - Pray.wav

     Peak level 99.8 %
     Track quality 99.9 %
     Test CRC 999084D1
     Copy CRC 999084D1
     Copy OK

Track  8
     Filename h:\music\Bless the Fall - His Last Walk\08 - With Eyes Wide Shut.wav

     Peak level 99.8 %
     Track quality 100.0 %
     Test CRC 53307283
     Copy CRC 53307283
     Copy OK

Track  9
     Filename h:\music\Bless the Fall - His Last Walk\09 - Wait For Tomorrow.wav

     Peak level 99.8 %
     Track quality 100.0 %
     Test CRC 88CA01E0
     Copy CRC 88CA01E0
     Copy OK

Track 10
     Filename h:\music\Bless the Fall - His Last Walk\10 - Black Rose Dying.wav

     Peak level 99.8 %
     Track quality 100.0 %
     Test CRC 90668807
     Copy CRC 90668807
     Copy OK

Track 11
     Filename h:\music\Bless the Fall - His Last Walk\11 - His Last Walk.wav

     Peak level 99.8 %
     Track quality 100.0 %
     Test CRC ECCF2D07
     Copy CRC ECCF2D07
     Copy OK

No errors occured

End of status report

Код:
Код:
-----------------------

DON'T MODIFY THIS FILE

-----------------------

PERFORMER: auCDtect Task Manager, ver. 1.5.1RC6 build 1.5.1.7
Copyright (c) 2008-2010 y-soft. All rights reserved
http:/y-soft.org

ANALYZER: auCDtect: CD records authenticity detector, version 0.8.2
Copyright (c) 2004 Oleg Berngardt. All rights reserved.
Copyright (c) 2004 Alexander Djourik. All rights reserved.

FILE: 11. Blessthefall - His Last Walk.flac
  Size: 40789687 Hash: 9A7F98833DE4FEE11F12B755F434297D Accuracy: -m0
  Conclusion: CDDA 100%
  Signature: F0367CAB9DD4087364F82331748C5681D6501F57
FILE: 10. Blessthefall - Black Rose Dying.flac
  Size: 32542140 Hash: 275BE7C067AB23A7BF20E60A2807DC49 Accuracy: -m0
  Conclusion: CDDA 100%
  Signature: F29B123715269C2ACD5A3DF47F3C8C4372F22195
FILE: 09. Blessthefall - Wait For Tomorrow.flac
  Size: 27411625 Hash: 3B286682CE1285C3B41562B36253143A Accuracy: -m0
  Conclusion: CDDA 100%
  Signature: 5B36E75DA912528CEED6CF10199B029E9C90FB7D
FILE: 08. Blessthefall - With Eyes Wide Shut.flac
  Size: 18611356 Hash: 95DB39356E78B2E1BB787F876BF5F792 Accuracy: -m0
  Conclusion: CDDA 100%
  Signature: 86C3F80224F5228CB3188838CC1AC9821595BBB7
FILE: 07. Blessthefall - Pray.flac
  Size: 34200643 Hash: 48EBA4E825B1350DBF6AA3628EFD7944 Accuracy: -m0
  Conclusion: CDDA 100%
  Signature: D778CF9A42DD7E6ABD756C102EF9B7CAD6F8B4CF
FILE: 06. Blessthefall - Times Like These.flac
  Size: 33098250 Hash: 43DC9D96DBE6F1714FD500338DDB8E75 Accuracy: -m0
  Conclusion: CDDA 100%
  Signature: 1DF4EEF501A788DC3E9D0852D7BC8C31875A107E
FILE: 05. Blessthefall - Rise Up.flac
  Size: 29789929 Hash: C80B5C287D236DC66D08255E6BD98F8D Accuracy: -m0
  Conclusion: CDDA 100%
  Signature: 8A54A515ECA66CF9916F97F36440C47606F57AC8
FILE: 04. Blessthefall - Could Tell A Love.flac
  Size: 23266681 Hash: 79F4F1910F6B9C4653BB6C2467443D43 Accuracy: -m0
  Conclusion: CDDA 100%
  Signature: CBBC7BC77229EEB5D8A21FE484FCB3D6E9B6539D
FILE: 03. Blessthefall - Higinia.flac
  Size: 22700279 Hash: 40A0D8426B7ED0AF0B2B23FF052CAF80 Accuracy: -m0
  Conclusion: CDDA 100%
  Signature: 13CBAE50821C4D116C582AB08B20B6F117B3737E
FILE: 02. Blessthefall - Guys Like You Make Us Look Bad.flac
  Size: 30044578 Hash: 0B279C3F8E40EB5EF10D3036BAFE731F Accuracy: -m0
  Conclusion: CDDA 100%
  Signature: 450731F83F4C5B8A110F36FE98070FC61085877D
FILE: 01. Blessthefall - A Message To The Unknown.flac
  Size: 28501685 Hash: 75D57B0BDA1AD4C18B24DDCA2A035286 Accuracy: -m0
  Conclusion: CDDA 100%
  Signature: 95095CC609353A0072D145070A1C2B1E683F30C8


Треклист:

01. A Message To The Unknown
02. Guys Like You Make Us Look Bad
03. Higinia
04. Could Tell A Love
05. Rise Up
06. Times Like These
07. Pray
08. With Eyes Wide Shut
09. Wait For Tomorrow
10. Black Rose Dying
11. His Last Walk
12. Rise Up (Acoustic) (Bonus Track)

Продолжительность: 00:50:18


Код:
Код:
Exact Audio Copy V0.99 prebeta 5 from 4. May 2009

EAC extraction logfile from 3. July 2009, 10:50

blessthefall / His Last Walk

Used drive  : HL-DT-STDVDRAM GSA-H12N   Adapter: 3  ID: 1

Read mode               : Secure
Utilize accurate stream : Yes
Defeat audio cache      : Yes
Make use of C2 pointers : No

Read offset correction                      : 667
Overread into Lead-In and Lead-Out          : No
Fill up missing offset samples with silence : Yes
Delete leading and trailing silent blocks   : No
Null samples used in CRC calculations       : Yes
Used interface                              : Native Win32 interface for Win NT & 2000
Gap handling                                : Appended to previous track

Used output format              : User Defined Encoder
Selected bitrate                : 192 kBit/s
Quality                         : High
Add ID3 tag                     : No
Command line compressor         : C:\Program Files\Exact Audio Copy\Flac\flac.exe
Additional command line options : -8 -A tukey(0.25) -A gauss(0.1875) -b 4096 -V -T "artist=%a" -T "title=%t" -T "album=%g" -T "date=%y" -T "tracknumber=%n" -T "genre=%m" %s --sector-align

TOC of the extracted CD

     Track |   Start  |  Length  | Start sector | End sector
    ---------------------------------------------------------
        1  |  0:00.00 |  3:32.15 |         0    |    15914
        2  |  3:32.15 |  3:55.48 |     15915    |    33587
        3  |  7:27.63 |  2:46.33 |     33588    |    46070
        4  | 10:14.21 |  2:51.20 |     46071    |    58915
        5  | 13:05.41 |  3:42.33 |     58916    |    75598
        6  | 16:47.74 |  4:07.11 |     75599    |    94134
        7  | 20:55.10 |  4:18.26 |     94135    |   113510
        8  | 25:13.36 |  2:54.43 |    113511    |   126603
        9  | 28:08.04 |  3:25.52 |    126604    |   142030
       10  | 31:33.56 |  4:03.69 |    142031    |   160324
       11  | 35:37.50 | 10:31.25 |    160325    |   207674
       12  | 46:09.00 |  4:09.60 |    207675    |   226409
       13  | 52:50.60 | 16:04.60 |    237810    |   310169

Track  1

     Filename H:\FLAC-MP3\btf-hlw-flac\01. A Message To The Unknown.wav

     Pre-gap length  0:00:02.00

     Peak level 99.8 %
     Track quality 99.9 %
     Test CRC 5D55DC16
     Copy CRC 5D55DC16
     Accurately ripped (confidence 3)  [1C24646A]
     Copy OK

Track  2

     Filename H:\FLAC-MP3\btf-hlw-flac\02. Guys Like You Make Us Look Bad.wav

     Peak level 99.8 %
     Track quality 100.0 %
     Test CRC 778811E3
     Copy CRC 778811E3
     Accurately ripped (confidence 2)  [8CE47781]
     Copy OK

Track  3

     Filename H:\FLAC-MP3\btf-hlw-flac\03. Higinia.wav

     Peak level 99.8 %
     Track quality 100.0 %
     Test CRC E13F1CAF
     Copy CRC E13F1CAF
     Accurately ripped (confidence 3)  [319405B2]
     Copy OK

Track  4

     Filename H:\FLAC-MP3\btf-hlw-flac\04. Could Tell A Love.wav

     Peak level 99.8 %
     Track quality 100.0 %
     Test CRC 85D242BA
     Copy CRC 85D242BA
     Accurately ripped (confidence 3)  [F984788C]
     Copy OK

Track  5

     Filename H:\FLAC-MP3\btf-hlw-flac\05. Rise Up.wav

     Peak level 99.8 %
     Track quality 100.0 %
     Test CRC 58DD5B88
     Copy CRC 58DD5B88
     Accurately ripped (confidence 3)  [A1AF3062]
     Copy OK

Track  6

     Filename H:\FLAC-MP3\btf-hlw-flac\06. Times Like These.wav

     Peak level 99.8 %
     Track quality 100.0 %
     Test CRC 252863EA
     Copy CRC 252863EA
     Accurately ripped (confidence 3)  [66F531CD]
     Copy OK

Track  7

     Filename H:\FLAC-MP3\btf-hlw-flac\07. Pray.wav

     Peak level 99.8 %
     Track quality 99.9 %
     Test CRC 999084D1
     Copy CRC 999084D1
     Accurately ripped (confidence 3)  [87254A4F]
     Copy OK

Track  8

     Filename H:\FLAC-MP3\btf-hlw-flac\08. With Eyes Wide Shut.wav

     Peak level 99.8 %
     Track quality 100.0 %
     Test CRC 53307283
     Copy CRC 53307283
     Accurately ripped (confidence 3)  [F054706B]
     Copy OK

Track  9

     Filename H:\FLAC-MP3\btf-hlw-flac\09. Wait For Tomorrow.wav

     Peak level 99.8 %
     Track quality 100.0 %
     Test CRC 88CA01E0
     Copy CRC 88CA01E0
     Accurately ripped (confidence 3)  [9FE1FF24]
     Copy OK

Track 10

     Filename H:\FLAC-MP3\btf-hlw-flac\10. Black Rose Dying.wav

     Peak level 99.8 %
     Track quality 100.0 %
     Test CRC 90668807
     Copy CRC 90668807
     Accurately ripped (confidence 3)  [3EB88730]
     Copy OK

Track 11

     Filename H:\FLAC-MP3\btf-hlw-flac\11. His Last Walk.wav

     Peak level 99.8 %
     Track quality 100.0 %
     Test CRC 9377BAAF
     Copy CRC 9377BAAF
     Accurately ripped (confidence 3)  [09E25A95]
     Copy OK

Track 12

     Filename H:\FLAC-MP3\btf-hlw-flac\12. Rise Up (Acoustic).wav

     Peak level 99.8 %
     Track quality 100.0 %
     Test CRC BFA66543
     Copy CRC BFA66543
     Accurately ripped (confidence 3)  [996F8A7E]
     Copy OK

All tracks accurately ripped

No errors occurred

End of status report

Код:
Код:
-----------------------

DON'T MODIFY THIS FILE

-----------------------

PERFORMER: auCDtect Task Manager, ver. 1.5.1RC6 build 1.5.1.7
Copyright (c) 2008-2010 y-soft. All rights reserved
http:/y-soft.org

ANALYZER: auCDtect: CD records authenticity detector, version 0.8.2
Copyright (c) 2004 Oleg Berngardt. All rights reserved.
Copyright (c) 2004 Alexander Djourik. All rights reserved.

FILE: 12. Blessthefall - Rise Up (Acoustic) (Bonus Track).flac
  Size: 30910377 Hash: E82A2738879FE46EF7B8C622B2521212 Accuracy: -m0
  Conclusion: CDDA 100%
  Signature: B1836E8D1FDDE95E66F563FBAA0B8E0E0FC68D30
FILE: 11. Blessthefall - His Last Walk.flac
  Size: 40719345 Hash: 75A1E1E4D58CA1EF8B42A3558A4E75A2 Accuracy: -m0
  Conclusion: CDDA 100%
  Signature: 52D57CB9C331381773780BD88B86CF16C4288C6C
FILE: 10. Blessthefall - Black Rose Dying.flac
  Size: 32527765 Hash: 275BE7C067AB23A7BF20E60A2807DC49 Accuracy: -m0
  Conclusion: CDDA 100%
  Signature: F98E5F9FFD9D46336823586F34788F7DFB90181A
FILE: 09. Blessthefall - Wait For Tomorrow.flac
  Size: 27411308 Hash: 3B286682CE1285C3B41562B36253143A Accuracy: -m0
  Conclusion: CDDA 100%
  Signature: 0D94626FC1347C592027592F7BF27E187CDE22A2
FILE: 08. Blessthefall - With Eyes Wide Shut.flac
  Size: 18563318 Hash: 95DB39356E78B2E1BB787F876BF5F792 Accuracy: -m0
  Conclusion: CDDA 100%
  Signature: F4082005386F129041EC698A23260290633F3FEA
FILE: 07. Blessthefall - Pray.flac
  Size: 34188625 Hash: 48EBA4E825B1350DBF6AA3628EFD7944 Accuracy: -m0
  Conclusion: CDDA 100%
  Signature: C20303ACF883B52C935931D1CD6B2E73C7B41344
FILE: 06. Blessthefall - Times Like These.flac
  Size: 33095407 Hash: 43DC9D96DBE6F1714FD500338DDB8E75 Accuracy: -m0
  Conclusion: CDDA 100%
  Signature: 90CF9AF270E25BC14920C50ABD796E0EBF391C0B
FILE: 05. Blessthefall - Rise Up.flac
  Size: 29786779 Hash: C80B5C287D236DC66D08255E6BD98F8D Accuracy: -m0
  Conclusion: CDDA 100%
  Signature: 63FAB30F4DD7BB1CF7E72414F17258FA2B9378BA
FILE: 04. Blessthefall - Could Tell A Love.flac
  Size: 23256559 Hash: 79F4F1910F6B9C4653BB6C2467443D43 Accuracy: -m0
  Conclusion: CDDA 100%
  Signature: F8F39FF1DC2EBF79EF6228A1E23636A9D79B19FB
FILE: 03. Blessthefall - Higinia.flac
  Size: 22695384 Hash: 40A0D8426B7ED0AF0B2B23FF052CAF80 Accuracy: -m0
  Conclusion: CDDA 100%
  Signature: D55F2C7F60B63C749F899843E5CB7F5D3FD5F22B
FILE: 02. Blessthefall - Guys Like You Make Us Look Bad.flac
  Size: 30040039 Hash: 0B279C3F8E40EB5EF10D3036BAFE731F Accuracy: -m0
  Conclusion: CDDA 100%
  Signature: 916E38E2B7F1E2398609007743774FDE83269329
FILE: 01. Blessthefall - A Message To The Unknown.flac
  Size: 28505192 Hash: 75D57B0BDA1AD4C18B24DDCA2A035286 Accuracy: -m0
  Conclusion: CDDA 100%
  Signature: 67A9F96E6FB00DD19AF3FCF2DC80F69947FAB61C


#777Треклист:

01. 2.0
02. What's Left Of Me
03. To Hell & Back
04. God Wears Gucci
05. Hey Baby, Here's That Song You Wanted
06. Witness
07. Last Ones Left
08. Five Ninety
09. We'll Sleep When We're Dead
10. SkinsWalkers
11. You Deserve Nothing & I Hope You Get Less
12. Stay Still

Продолжительность: 00:41:06


Код:
Код:
Exact Audio Copy V0.99 prebeta 3 from 28. July 2007

EAC extraction logfile from 3. October 2009, 14:49

blessthefall / Witness

Used drive  : ATAPI   iHAS120   6   Adapter: 2  ID: 0

Read mode               : Secure
Utilize accurate stream : Yes
Defeat audio cache      : Yes
Make use of C2 pointers : No

Read offset correction                      : 6
Overread into Lead-In and Lead-Out          : No
Fill up missing offset samples with silence : Yes
Delete leading and trailing silent blocks   : No
Null samples used in CRC calculations       : Yes
Used interface                              : Native Win32 interface for Win NT & 2000
Gap handling                                : Appended to previous track

Used output format              : User Defined Encoder
Selected bitrate                : 768 kBit/s
Quality                         : High
Add ID3 tag                     : No
Command line compressor         : C:\Program Files (x86)\Exact Audio Copy\FLAC\FLAC.EXE
Additional command line options : -V -8 -T "artist=%a" -T "title=%t" -T "album=%g" -T "date=%y" -T "tracknumber=%n" -T "genre=%m" %s

TOC of the extracted CD

     Track |   Start  |  Length  | Start sector | End sector
    ---------------------------------------------------------
        1  |  0:00.00 |  1:00.30 |         0    |     4529
        2  |  1:00.30 |  3:30.60 |      4530    |    20339
        3  |  4:31.15 |  3:18.43 |     20340    |    35232
        4  |  7:49.58 |  4:07.12 |     35233    |    53769
        5  | 11:56.70 |  3:14.60 |     53770    |    68379
        6  | 15:11.55 |  3:13.65 |     68380    |    82919
        7  | 18:25.45 |  2:51.71 |     82920    |    95815
        8  | 21:17.41 |  3:50.03 |     95816    |   113068
        9  | 25:07.44 |  4:11.60 |    113069    |   131953
       10  | 29:19.29 |  3:58.66 |    131954    |   149869
       11  | 33:18.20 |  3:36.74 |    149870    |   166143
       12  | 36:55.19 |  4:10.60 |    166144    |   184953

Track  1

     Filename C:\Users\Bryan\Desktop\blessthefall - Witness Flac Re-rip\blessthefall\Witness\01 - 2.0.wav

     Pre-gap length  0:00:02.00

     Peak level 100.0 %
     Track quality 100.0 %
     Test CRC B7F4D4B7
     Copy CRC B7F4D4B7
     Track not present in AccurateRip database
     Copy OK

Track  2

     Filename C:\Users\Bryan\Desktop\blessthefall - Witness Flac Re-rip\blessthefall\Witness\02 - What's Left Of Me.wav

     Peak level 100.0 %
     Track quality 100.0 %
     Test CRC 211EB801
     Copy CRC 211EB801
     Track not present in AccurateRip database
     Copy OK

Track  3

     Filename C:\Users\Bryan\Desktop\blessthefall - Witness Flac Re-rip\blessthefall\Witness\03 - To Hell & Back.wav

     Peak level 100.0 %
     Track quality 99.9 %
     Test CRC 87C4D4FD
     Copy CRC 87C4D4FD
     Track not present in AccurateRip database
     Copy OK

Track  4

     Filename C:\Users\Bryan\Desktop\blessthefall - Witness Flac Re-rip\blessthefall\Witness\04 - God Wears Gucci.wav

     Peak level 100.0 %
     Track quality 100.0 %
     Test CRC E66EFC0E
     Copy CRC E66EFC0E
     Track not present in AccurateRip database
     Copy OK

Track  5

     Filename C:\Users\Bryan\Desktop\blessthefall - Witness Flac Re-rip\blessthefall\Witness\05 - Hey Baby, Here's That Song You Wanted.wav

     Pre-gap length  0:00:13.24

     Peak level 100.0 %
     Track quality 100.0 %
     Test CRC A86108E3
     Copy CRC A86108E3
     Track not present in AccurateRip database
     Copy OK

Track  6

     Filename C:\Users\Bryan\Desktop\blessthefall - Witness Flac Re-rip\blessthefall\Witness\06 - Witness.wav

     Peak level 100.0 %
     Track quality 100.0 %
     Test CRC C0C851C1
     Copy CRC C0C851C1
     Track not present in AccurateRip database
     Copy OK

Track  7

     Filename C:\Users\Bryan\Desktop\blessthefall - Witness Flac Re-rip\blessthefall\Witness\07 - Last Ones Left.wav

     Peak level 100.0 %
     Track quality 100.0 %
     Test CRC ECFF0423
     Copy CRC ECFF0423
     Track not present in AccurateRip database
     Copy OK

Track  8

     Filename C:\Users\Bryan\Desktop\blessthefall - Witness Flac Re-rip\blessthefall\Witness\08 - Five Ninety.wav

     Peak level 100.0 %
     Track quality 100.0 %
     Test CRC 70198F89
     Copy CRC 70198F89
     Track not present in AccurateRip database
     Copy OK

Track  9

     Filename C:\Users\Bryan\Desktop\blessthefall - Witness Flac Re-rip\blessthefall\Witness\09 - We'll Sleep When We're Dead.wav

     Peak level 100.0 %
     Track quality 100.0 %
     Test CRC 1CBD7ECC
     Copy CRC 1CBD7ECC
     Track not present in AccurateRip database
     Copy OK

Track 10

     Filename C:\Users\Bryan\Desktop\blessthefall - Witness Flac Re-rip\blessthefall\Witness\10 - SkinsWalkers.wav

     Peak level 100.0 %
     Track quality 100.0 %
     Test CRC A7FCFA9B
     Copy CRC A7FCFA9B
     Track not present in AccurateRip database
     Copy OK

Track 11

     Filename C:\Users\Bryan\Desktop\blessthefall - Witness Flac Re-rip\blessthefall\Witness\11 - You Deserve Nothing & I Hope You Get Less.wav

     Peak level 100.0 %
     Track quality 100.0 %
     Test CRC 30A50068
     Copy CRC 30A50068
     Track not present in AccurateRip database
     Copy OK

Track 12

     Filename C:\Users\Bryan\Desktop\blessthefall - Witness Flac Re-rip\blessthefall\Witness\12 - Stay Still.wav

     Peak level 100.0 %
     Track quality 100.0 %
     Test CRC B078E2CE
     Copy CRC B078E2CE
     Track not present in AccurateRip database
     Copy OK

None of the tracks are present in the AccurateRip database

No errors occurred

End of status report

Код:
Код:
-----------------------

DON'T MODIFY THIS FILE

-----------------------

PERFORMER: auCDtect Task Manager, ver. 1.5.1RC6 build 1.5.1.7
Copyright (c) 2008-2010 y-soft. All rights reserved
http:/y-soft.org

ANALYZER: auCDtect: CD records authenticity detector, version 0.8.2
Copyright (c) 2004 Oleg Berngardt. All rights reserved.
Copyright (c) 2004 Alexander Djourik. All rights reserved.

FILE: 12. Blessthefall - Stay Still.flac
  Size: 32497516 Hash: EF954D6A02A377AA61262D8709991A2E Accuracy: -m0
  Conclusion: CDDA 100%
  Signature: A5AE5F842CB7231A826D230FEC0172FFF73FCE38
FILE: 11. Blessthefall - You Deserve Nothing & I Hope You Get Less.flac
  Size: 28934802 Hash: BDD8749C727EFE3D8D65641D99109B29 Accuracy: -m0
  Conclusion: CDDA 99%
  Signature: 7FE43D711A042379F620DC544A7C15D101A66A0C
FILE: 10. Blessthefall - SkinsWalkers.flac
  Size: 31516027 Hash: 3A4410C3AE6625EC7C381853CA8D549C Accuracy: -m0
  Conclusion: CDDA 100%
  Signature: AE7BF36DEE846853C4CA824968AB50E18E0EE360
FILE: 09. Blessthefall - We'll Sleep When We're Dead.flac
  Size: 34229622 Hash: AF76259AC389CD4145E87B3523B72BCB Accuracy: -m0
  Conclusion: CDDA 100%
  Signature: BAA6C8D8B825007E3C55D50D34FD7FA48908EE7E
FILE: 08. Blessthefall - Five Ninety.flac
  Size: 31636370 Hash: B402BC3F1DC72D4647ED23FEBAFE37A9 Accuracy: -m0
  Conclusion: CDDA 100%
  Signature: F28E7AFCDE040C7243C71279B8FAA2CFC31625F0
FILE: 07. Blessthefall - Last Ones Left.flac
  Size: 24219077 Hash: AF3F5EA82DD4B8FE54D15D4446588DBB Accuracy: -m0
  Conclusion: CDDA 100%
  Signature: E82681435561BC067FC7E30E18EBCCE8771D2D5C
FILE: 06. Blessthefall - Witness.flac
  Size: 26186500 Hash: 74CBF7E75A752BEE38C94CD9F0AEC423 Accuracy: -m0
  Conclusion: CDDA 100%
  Signature: 8CA6BC1D182CC9946DEF5A067BDEEAF3F5D56D66
FILE: 05. Blessthefall - Hey Baby, Here's That Song You Wanted.flac
  Size: 27330633 Hash: 9DB7CF682A518BDCFEB7D02191806465 Accuracy: -m0
  Conclusion: CDDA 100%
  Signature: 32A45E1FAC60180CF3571CAA244BA5E83A5AA01A
FILE: 04. Blessthefall - God Wears Gucci.flac
  Size: 33239711 Hash: C091533FF44085F16844B058383B4BF3 Accuracy: -m0
  Conclusion: CDDA 100%
  Signature: B13DE4296F6946C34497DF00415FE931F9C00880
FILE: 03. Blessthefall - To Hell & Back.flac
  Size: 27643437 Hash: 041C6076B0C0EE0A2B38BD31EBCD94F9 Accuracy: -m0
  Conclusion: CDDA 100%
  Signature: 3F1B596CB8178C83E662E93F8CFE32BD04BF4BB4
FILE: 02. Blessthefall - What's Left Of Me.flac
  Size: 29135821 Hash: FBDA7A11269C4FE8997F183C4CE5B571 Accuracy: -m0
  Conclusion: CDDA 100%
  Signature: 13DD339C1B937C13F8121340EDBABE2BEEC3977E
FILE: 01. Blessthefall - 2.0.flac
  Size: 8924235 Hash: 8A6AB925F082CC782596C0C448A958FB Accuracy: -m0
  Conclusion: CDDA 100%
  Signature: AA86F5984727B9FC3411230B22A00B1E1B83C601


#777Треклист:

01. Awakening
02. Promised Ones
03. Bottomfeeder
04. I'm Bad News, In The Best Way
05. The Reign
06. 40 Days...
07. Bones Crew
08. Don't Say Goodbye
09. Undefeated
10. 'Till The Death Of Me
11. Flatline
12. Meet Me At The Gates

Продолжительность: 00:49:27


Код:
Код:
Exact Audio Copy V1.0 beta 3 from 29. August 2011

EAC extraction logfile from 8. October 2011, 3:17

blessthefall / Awakening

Used drive  : TSSTcorpCDDVDW TS-L633J   Adapter: 1  ID: 0

Read mode               : Secure
Utilize accurate stream : Yes
Defeat audio cache      : Yes
Make use of C2 pointers : No

Read offset correction                      : 6
Overread into Lead-In and Lead-Out          : No
Fill up missing offset samples with silence : Yes
Delete leading and trailing silent blocks   : No
Null samples used in CRC calculations       : Yes
Used interface                              : Native Win32 interface for Win NT & 2000
Gap handling                                : Appended to previous track

Used output format              : User Defined Encoder
Selected bitrate                : 768 kBit/s
Quality                         : High
Add ID3 tag                     : No
Command line compressor         : C:\Program Files (x86)\Exact Audio Copy\FLAC\FLAC.EXE
Additional command line options : -6 -V -T "ARTIST=%artist%" -T "TITLE=%title%" -T "ALBUM=%albumtitle%" -T "DATE=%year%" -T "TRACKNUMBER=%tracknr%" -T "GENRE=%genre%" -T "COMMENT=%comment%" -T "BAND=%albuminterpret%" -T "ALBUMARTIST=%albuminterpret%" -T "COMPOSER=%composer%" %haslyrics%--tag-from-file=LYRICS="%lyricsfile%"%haslyrics% -T "DISCNUMBER=%cdnumber%" -T "TOTALDISCS=%totalcds%" -T "TOTALTRACKS=%numtracks%" %hascover%--picture="%coverfile%"%hascover% %source% -o %dest%

TOC of the extracted CD

     Track |   Start  |  Length  | Start sector | End sector
    ---------------------------------------------------------
        1  |  0:00.00 |  1:19.65 |         0    |     5989
        2  |  1:19.65 |  3:36.49 |      5990    |    22238
        3  |  4:56.39 |  3:35.23 |     22239    |    38386
        4  |  8:31.62 |  3:50.56 |     38387    |    55692
        5  | 12:22.43 |  4:00.24 |     55693    |    73716
        6  | 16:22.67 |  4:18.30 |     73717    |    93096
        7  | 20:41.22 |  3:16.27 |     93097    |   107823
        8  | 23:57.49 |  3:46.01 |    107824    |   124774
        9  | 27:43.50 |  3:25.23 |    124775    |   140172
       10  | 31:08.73 |  4:25.11 |    140173    |   160058
       11  | 35:34.09 |  1:42.67 |    160059    |   167775
       12  | 37:17.01 | 12:10.17 |    167776    |   222542

Track  1

     Filename C:\Users\Nick\Downloads\blessthefall - Awakening\01 Awakening.wav

     Pre-gap length  0:00:02.00

     Peak level 98.8 %
     Extraction speed 0.8 X
     Track quality 100.0 %
     Test CRC AB1D8696
     Copy CRC AB1D8696
     Track not present in AccurateRip database
     Copy OK

Track  2

     Filename C:\Users\Nick\Downloads\blessthefall - Awakening\02 Promised Ones.wav

     Peak level 100.0 %
     Extraction speed 1.1 X
     Track quality 100.0 %
     Test CRC E98C808E
     Copy CRC E98C808E
     Track not present in AccurateRip database
     Copy OK

Track  3

     Filename C:\Users\Nick\Downloads\blessthefall - Awakening\03 Bottomfeeder.wav

     Peak level 98.8 %
     Extraction speed 1.2 X
     Track quality 100.0 %
     Test CRC A308141A
     Copy CRC A308141A
     Track not present in AccurateRip database
     Copy OK

Track  4

     Filename C:\Users\Nick\Downloads\blessthefall - Awakening\04 I'm Bad News, In The Best Way.wav

     Peak level 98.8 %
     Extraction speed 1.2 X
     Track quality 99.9 %
     Test CRC 9C544BC6
     Copy CRC 9C544BC6
     Track not present in AccurateRip database
     Copy OK

Track  5

     Filename C:\Users\Nick\Downloads\blessthefall - Awakening\05 The Reign.wav

     Peak level 98.8 %
     Extraction speed 1.3 X
     Track quality 99.9 %
     Test CRC B59ADE31
     Copy CRC B59ADE31
     Track not present in AccurateRip database
     Copy OK

Track  6

     Filename C:\Users\Nick\Downloads\blessthefall - Awakening\06 40 Days....wav

     Peak level 98.8 %
     Extraction speed 1.6 X
     Track quality 100.0 %
     Test CRC 9A86F810
     Copy CRC 9A86F810
     Track not present in AccurateRip database
     Copy OK

Track  7

     Filename C:\Users\Nick\Downloads\blessthefall - Awakening\07 Bones Crew.wav

     Peak level 98.8 %
     Extraction speed 1.6 X
     Track quality 100.0 %
     Test CRC 9DD79444
     Copy CRC 9DD79444
     Track not present in AccurateRip database
     Copy OK

Track  8

     Filename C:\Users\Nick\Downloads\blessthefall - Awakening\08 Don't Say Goodbye.wav

     Peak level 98.8 %
     Extraction speed 1.7 X
     Track quality 100.0 %
     Test CRC 544F2B08
     Copy CRC 544F2B08
     Track not present in AccurateRip database
     Copy OK

Track  9

     Filename C:\Users\Nick\Downloads\blessthefall - Awakening\09 Undefeated.wav

     Peak level 98.8 %
     Extraction speed 1.7 X
     Track quality 100.0 %
     Test CRC AD27DCD1
     Copy CRC AD27DCD1
     Track not present in AccurateRip database
     Copy OK

Track 10

     Filename C:\Users\Nick\Downloads\blessthefall - Awakening\10 'Till The Death Of Me.wav

     Peak level 100.0 %
     Extraction speed 1.9 X
     Track quality 100.0 %
     Test CRC 2EBD0159
     Copy CRC 2EBD0159
     Track not present in AccurateRip database
     Copy OK

Track 11

     Filename C:\Users\Nick\Downloads\blessthefall - Awakening\11 Flatline.wav

     Peak level 55.4 %
     Extraction speed 1.2 X
     Track quality 99.8 %
     Test CRC B0057A5C
     Copy CRC B0057A5C
     Track not present in AccurateRip database
     Copy OK

Track 12

     Filename C:\Users\Nick\Downloads\blessthefall - Awakening\12 Meet Me At The Gates.wav

     Peak level 98.8 %
     Extraction speed 2.2 X
     Track quality 100.0 %
     Test CRC F4B79361
     Copy CRC F4B79361
     Track not present in AccurateRip database
     Copy OK

None of the tracks are present in the AccurateRip database

No errors occurred

End of status report

---- CUETools DB Plugin V2.1.3

[CTDB TOCID: tXOZ4lgKvx7mGdSaVllK547LF.I-] disk not present in database, Submit result: tXOZ4lgKvx7mGdSaVllK547LF.I- has been uploaded

==== Log checksum F2626D9A99E699FC272A4867769CBDB511F19EAD45157331E1B51EDB3480BA09 ====

Код:
Код:
-----------------------

DON'T MODIFY THIS FILE

-----------------------

PERFORMER: auCDtect Task Manager, ver. 1.5.1RC6 build 1.5.1.7
Copyright (c) 2008-2010 y-soft. All rights reserved
http:/y-soft.org

ANALYZER: auCDtect: CD records authenticity detector, version 0.8.2
Copyright (c) 2004 Oleg Berngardt. All rights reserved.
Copyright (c) 2004 Alexander Djourik. All rights reserved.

FILE: 12. Blessthefall - Meet Me At The Gates.flac
  Size: 57418012 Hash: C28552C62A49886FA385BCCA96432AFE Accuracy: -m0
  Conclusion: CDDA 100%
  Signature: FC36ACC95570BB3E525035F1F7CFBF10C75AF772
FILE: 11. Blessthefall - Flatline.flac
  Size: 8038232 Hash: 0DD22EDA1D107DFDAB0713DA40BC7C66 Accuracy: -m0
  Conclusion: CDDA 100%
  Signature: B0692375313D97E81AE7F4AE225B70EAB83E9A5E
FILE: 10. Blessthefall - 'Till The Death Of Me.flac
  Size: 35179361 Hash: 021920C1D9A630D96299E6FC61410C07 Accuracy: -m0
  Conclusion: CDDA 100%
  Signature: 83B2E99F09CD30DE4E8C427BFE899614869015D8
FILE: 09. Blessthefall - Undefeated.flac
  Size: 27373530 Hash: E03D2B6424D3099F9C60B040A9DDA7CF Accuracy: -m0
  Conclusion: CDDA 100%
  Signature: CE7A2794C730B4A22ECE782C277593A10EE8413B
FILE: 08. Blessthefall - Don't Say Goodbye.flac
  Size: 30213579 Hash: 678CEB218AE01190C66B011FDD991C17 Accuracy: -m0
  Conclusion: CDDA 100%
  Signature: 67B3FC5C4F4C19D8F530CE26DDBEF54F3750FAC0
FILE: 07. Blessthefall - Bones Crew.flac
  Size: 25859169 Hash: EB5EE6A8A593B6275978E0440570B79A Accuracy: -m0
  Conclusion: CDDA 100%
  Signature: 77A6099D08590911DA54EB7F51580993F15F5BA2
FILE: 06. Blessthefall - 40 Days.flac
  Size: 33483559 Hash: AB9019AD8F37DE3CA8752BAEA7D009AB Accuracy: -m0
  Conclusion: CDDA 100%
  Signature: E54EBA0D1A744AA7556AE6EF460C66A78ADEBB9F
FILE: 05. Blessthefall - The Reign.flac
  Size: 32237948 Hash: 43681C172609B4FFF9281EA42EDA4385 Accuracy: -m0
  Conclusion: CDDA 100%
  Signature: 9ED2B6E292CF713968A9C275309E535A6F8580D7
FILE: 04. Blessthefall - I'm Bad News, In The Best Way.flac
  Size: 30171466 Hash: 4F256F6A356C8BB92DB6E4E7D4BD6738 Accuracy: -m0
  Conclusion: CDDA 100%
  Signature: 6C15E78026B8E4ACD879AD5C95B412DC3B31F7E1
FILE: 03. Blessthefall - Bottomfeeder.flac
  Size: 29355935 Hash: 573FE3EF77F7F84931FA65FC30651C6C Accuracy: -m0
  Conclusion: CDDA 100%
  Signature: 61914B31352578F5040223D088A9A2AEC0D2BD40
FILE: 02. Blessthefall - Promised Ones.flac
  Size: 30244079 Hash: 40EB14D7011CCFC276849F32B82FFC0A Accuracy: -m0
  Conclusion: CDDA 100%
  Signature: 192E104A72E787EC0443AB787320D7D99A8EF15D
FILE: 01. Blessthefall - Awakening.flac
  Size: 10272904 Hash: 35799D47E96605375D0108993EFE7D7E Accuracy: -m0
  Conclusion: CDDA 100%
  Signature: 2AC26C66178358206C4E45DFE6FEFC496C55D2BC


#777Треклист:

01. Exodus
02. You Wear A Crown But You're No King
03. Hollow Bodies
04. Deja Vu
05. Buried In These Walls
06. See You On The Outside
07. Youngbloods
08. Standing On The Ashes
09. Carry On
10. The Sound Of Starting Over
11. Open Water

Продолжительность: 00:46:20


Код:
Код:
-----------------------

DON'T MODIFY THIS FILE

-----------------------

PERFORMER: auCDtect Task Manager, ver. 1.5.1RC6 build 1.5.1.7
Copyright (c) 2008-2010 y-soft. All rights reserved
http:/y-soft.org

ANALYZER: auCDtect: CD records authenticity detector, version 0.8.2
Copyright (c) 2004 Oleg Berngardt. All rights reserved.
Copyright (c) 2004 Alexander Djourik. All rights reserved.

FILE: 11. Blessthefall - Open Water.flac
  Size: 48891571 Hash: 8FB36574F5A4382DF25D8196E059E52D Accuracy: -m0
  Conclusion: CDDA 100%
  Signature: 701E8932E767DF8138D9D99430A20A9B64081CAC
FILE: 10. Blessthefall - The Sound Of Starting Over.flac
  Size: 32701753 Hash: CF4049290D82EC3950BE15D68D80F367 Accuracy: -m0
  Conclusion: CDDA 100%
  Signature: 1C12FAFE56D79701668EE7AE38F2176E87FF24F6
FILE: 09. Blessthefall - Carry On.flac
  Size: 26429857 Hash: 08F003B40438B4BB33F040C13E194841 Accuracy: -m0
  Conclusion: CDDA 100%
  Signature: 1CB14E5965F9D07AD4E2AB0E876EF039622F8602
FILE: 08. Blessthefall - Standing On The Ashes.flac
  Size: 26301940 Hash: 7C6E6635C9F4CC531C7BEF73E0D887D7 Accuracy: -m0
  Conclusion: CDDA 100%
  Signature: ABEF8F41931FA573A724BC31A40F6978D1A6A328
FILE: 07. Blessthefall - Youngbloods.flac
  Size: 24255922 Hash: 8B010BA5A8171F52DFC16D47E0FC488E Accuracy: -m0
  Conclusion: CDDA 100%
  Signature: 3A82E6AFF213A7654BDB6F7812AD9C3B5E5C823F
FILE: 06. Blessthefall - See You On The Outside.flac
  Size: 34471075 Hash: E530D0C6719A04921D51A951C5671554 Accuracy: -m0
  Conclusion: CDDA 100%
  Signature: 0C3F286103417CCE98A0B2F22B757BCF24A6A4DB
FILE: 05. Blessthefall - Buried In These Walls.flac
  Size: 22732678 Hash: 802122E02CBC45FF3A0B2161C88F3BB4 Accuracy: -m0
  Conclusion: CDDA 100%
  Signature: 7E3426496C6997AE8DF34DCA9A21FF83B6E1123D
FILE: 04. Blessthefall - Deja Vu.flac
  Size: 33478200 Hash: AE8F3393185665E1E0A4C33261B11B87 Accuracy: -m0
  Conclusion: CDDA 100%
  Signature: 5DC94D3DACF335B47FEDAF37E5C618557B9CFD7C
FILE: 03. Blessthefall - Hollow Bodies.flac
  Size: 35550239 Hash: 9F4570E27E03617F60CEF7BCCE03562B Accuracy: -m0
  Conclusion: CDDA 100%
  Signature: 5E47F9BF487EFC84A223F94BD6BDD91A5DD96221
FILE: 02. Blessthefall - You Wear A Crown But You're No King.flac
  Size: 30747285 Hash: F74D7361B61A3E21527F56D37AFE307C Accuracy: -m0
  Conclusion: CDDA 100%
  Signature: 0CF7192782E1B97086EB1D8123590CC8FFDA8008
FILE: 01. Blessthefall - Exodus.flac
  Size: 43955789 Hash: 0D3FAE62FE3BD3956A2FAEF7A82A881E Accuracy: -m0
  Conclusion: CDDA 100%
  Signature: FC65E3D3DEDD17775B57ABFBFE9D3E0A56B9CFDF




Тип рипа: Tracks+.cue
Аудиокодек: FLAC
Битрейт аудио: lossless
Правила, инструкции, FAQ!!!
Торрент  Добавлен [16 мар 2014, 00:53] Скачать торрент Магнет ссылка
Скачать торрент
[ Размер 23.5 КБ / Просмотров 551 ]

Статус  
 
Размер  1.62 ГБ
Приватный: Нет (DHT включён)
.torrent скачан  30
 


     Отправить личное сообщение
   
Страница 1 из 1
Показать сообщения за:  Поле сортировки  
Начать новую тему Ответить на тему


Сейчас этот форум просматривают: нет зарегистрированных пользователей и гости: 0


Вы не можете начинать темы
Вы не можете отвечать на сообщения
Вы не можете редактировать свои сообщения
Вы не можете удалять свои сообщения
Вы не можете добавлять вложения

Перейти:  
cron