Начать новую тему Ответить на тему
Статистика раздачи
Размер: 542.57 МБ | Добавлен: 24 авг 2016, 11:32 | Скачали: 0
Сидеров: 2  [0 байт/сек]    Личеров: 174  [0 байт/сек]
Пред. тема | След. тема 

Автор
Сообщение

СообщениеДобавлено: 24 авг 2016, 11:32 

Ответить с цитатой 

Witchtrap / Witching Metal
(Hells Headbangers 12 Inch EP 2009 VinylRip 24-96)
Жанр: Black/Thrash Metal
Страна-производитель диска: United States
Год издания: 2000
Издатель (лейбл): Hells Headbangers
Страна: Colombia
Аудиокодек: APE (*.ape)
Тип рипа: image+.cue
Битрейт аудио: lossless
Продолжительность: 24.10
Источник (релизер): AmishFury
Наличие сканов в содержимом раздачи: да
Треклист:
1. Cry War
2. The Maniac
3. Witchtrap
4. Black Like the Night
5. Torment in Fire
6. Command of Hate
Код:
Rip Info

Turntable: Pioneer PL-L50
Cartridge: Audio Technica AT201EP
"Preamp": Sony STR-D611
Interface: Creative X-Fi XtremeMusic (Audio Creation mode)
Software used: Adobe Audition 3.0, ClickRepair 3.3.1, Izotope RX Advanced 1.21.610
Vinyl Condition: NM
Recorded with Adobe Audition (32/96)
Declicked with Click Repair
All Dithering and Resampling with iZotope RX Advanced

100% foobar2000 ready replaygain scanned with embedded cuesheet
Код:
REM GENRE Thrash Metal
REM DATE 2000
PERFORMER "Witchtrap"
TITLE "Witching Metal"
FILE "Witchtrap - Witching Metal.wav" WAVE
  TRACK 01 AUDIO
    TITLE "Cry War"
    INDEX 01 00:00:00
  TRACK 02 AUDIO
    TITLE "The Maniac"
    INDEX 01 01:51:61
  TRACK 03 AUDIO
    TITLE "Witchtrap"
    INDEX 01 05:36:43
  TRACK 04 AUDIO
    TITLE "Black Like The Night"
    INDEX 01 11:39:04
  TRACK 05 AUDIO
    TITLE "Torment In Fire"
    INDEX 01 16:28:49
  TRACK 06 AUDIO
    TITLE "Command Of Hate"
    INDEX 01 20:17:50
Правила, инструкции, FAQ!!!
Торрент  Добавлен [24 авг 2016, 11:32] Скачать торрент Магнет ссылка
Скачать торрент
[ Размер 11.91 КБ / Просмотров 26 ]

Статус
Проверен 
 
Размер  542.57 МБ
Приватный: Нет (DHT включён)
.torrent скачан  0
 


     Отправить личное сообщение
   
Страница 1 из 1
Показать сообщения за:  Поле сортировки  
Начать новую тему Ответить на тему


Сейчас этот форум просматривают: нет зарегистрированных пользователей и гости: 0


Вы не можете начинать темы
Вы не можете отвечать на сообщения
Вы не можете редактировать свои сообщения
Вы не можете удалять свои сообщения
Вы не можете добавлять вложения

Перейти:  
cron
cron