Начать новую тему Ответить на тему
Статистика раздачи
Размер: 998.89 МБ | Добавлен: 24 авг 2016, 11:53 | Скачали: 1
Сидеров: 3  [0 байт/сек]    Личеров: 1  [0 байт/сек]
Пред. тема | След. тема 

Автор
Сообщение

СообщениеДобавлено: 24 авг 2016, 11:53 

Ответить с цитатой 

Samael · Eternal



Жанр: Black Metal / Industrial Metal
Год выпуска: 1999 (2014)
Лейбл · Каталог: Floga Records · FL82
Страна-производитель: Greece
Аудио кодек: FLAC
Тип рипа: tracks
Формат записи: 24/96
Формат раздачи: 24/96
Продолжительность: 01:08:06
Источник оцифровки:

01. Year Zero (3:38)
02. Ailleurs (3:55)
03. Together (4:27)
04. Ways (3:49)
05. The Cross (3:22)
06. Us (4:12)
07. Supra Karma (4:33)
08. I (4:02)
09. Nautilus & Zeppelin (4:13)
10. Infra Galaxia (4:12)
11. Being (3:12)
12. Radiant Star (3:51)
Устройство воспроизведения: Pro-Ject 1-Xpression III
Картридж: Ortofon 2M-RED
Предварительный усилитель: Densen Beat-110 (Densen DP-03)
АЦП: Creative SB X-Fi Surround 5.1
Программа-оцифровщик: WavePurity Pro
Обработка: Щелчки (вручную)
foobar2000 1.2 / Dynamic Range Meter 1.1.1
log date: 2015-06-03 20:22:24

--------------------------------------------------------------------------------
Analyzed: Samael / Eternal
--------------------------------------------------------------------------------

DR Peak RMS Duration Track
--------------------------------------------------------------------------------
DR8 -3.10 dB -14.17 dB 3:38 01-Year Zero
DR9 -3.31 dB -14.60 dB 3:55 02-Ailleurs
DR9 -3.96 dB -15.36 dB 4:27 03-Together
DR10 -3.13 dB -16.60 dB 3:49 04-Ways
DR9 -4.94 dB -16.16 dB 3:22 05-The Cross
DR9 -4.66 dB -16.22 dB 4:12 06-Us
DR9 -3.51 dB -14.21 dB 4:33 07-Supra Karma
DR10 -2.99 dB -15.78 dB 4:02 08-I
DR10 -1.13 dB -15.31 dB 4:13 09-Nautilus & Zeppelin
DR10 -1.33 dB -16.33 dB 4:12 10-Infra Galaxia
DR11 -1.99 dB -15.66 dB 3:12 11-Being
DR10 -1.37 dB -15.13 dB 3:51 12-Radiant Star
--------------------------------------------------------------------------------

Number of tracks: 12
Official DR value: DR9

Samplerate: 96000 Hz
Channels: 2
Bits per sample: 24
Bitrate: 4608 kbps
Codec: PCM
================================================================================

Данный материал предоставлен исключительно для ознакомления, после прослушивания необходимо уничтожить жёсткий диск. Рекомендуется приобрести фирменную продукцию.
Правила, инструкции, FAQ!!!
Торрент  Добавлен [24 авг 2016, 11:53] Скачать торрент Магнет ссылка
Скачать торрент
[ Размер 39.77 КБ / Просмотров 29 ]

Статус
Проверен 
 
Размер  998.89 МБ
Приватный: Нет (DHT включён)
.torrent скачан  1
 


     Отправить личное сообщение
   
Страница 1 из 1
Показать сообщения за:  Поле сортировки  
Начать новую тему Ответить на тему


Сейчас этот форум просматривают: нет зарегистрированных пользователей и гости: 0


Вы не можете начинать темы
Вы не можете отвечать на сообщения
Вы не можете редактировать свои сообщения
Вы не можете удалять свои сообщения
Вы не можете добавлять вложения

Перейти:  
cron
cron