Начать новую тему Ответить на тему
Статистика раздачи
Размер: 325.03 МБ | Добавлен: 03 май 2020, 19:37 | Скачали: 0
Сидеров: 0  [0 байт/сек]    Личеров: 0  [0 байт/сек]
Пред. тема | След. тема 

Автор
Сообщение

СообщениеДобавлено: 03 май 2020, 19:37 

Ответить с цитатой 

Fourth Monarchy / Amphilochia
Жанр: Black Metal
Носитель: CD
Страна-производитель диска (релиза): Russia
Год издания: 2007
Издатель (лейбл): Helvete.ru
Номер по каталогу: hlvtr1
Страна исполнителя (группы): Italy
Аудиокодек: FLAC (*.flac)
Тип рипа: image+.cue
Продолжительность: 0:40:23
Источник: собственный рип
Наличие сканов в содержимом раздачи: да
Треклист:
Parigi, 1400. Esoterismo
01. Alkaest (5:35)
02. La Torre di Sette Torri (4:38)
03. Al Castello (7:01)
04. Notre Dame. La Citta Gotica (4:20)
Costantinopoli, V Secolo. Sacralità Bizantina
05. Mistica Notte di uno Stilita (2:29)
06. Antiochia (4:43)
07. Il Sangue del Deicidio (5:03)
La Serpe Divora Sè Stessa
08. Ars Naturae Ministra (Une Aventure Esoterique) (5:22)
09. Aghia Sophia (1:11)
Код:
Exact Audio Copy V1.5 from 20. February 2020
EAC extraction logfile from 2. May 2020, 21:31
Fourth Monarchy / Amphilochia
Used drive  : ASUS    DRW-1612BL   Adapter: 2  ID: 0
Read mode               : Secure
Utilize accurate stream : Yes
Defeat audio cache      : Yes
Make use of C2 pointers : No
Read offset correction                      : 6
Overread into Lead-In and Lead-Out          : No
Fill up missing offset samples with silence : Yes
Delete leading and trailing silent blocks   : No
Null samples used in CRC calculations       : Yes
Used interface                              : Installed external ASPI interface
Used output format              : User Defined Encoder
Selected bitrate                : 128 kBit/s
Quality                         : High
Add ID3 tag                     : No
Command line compressor         : C:\Program Files\EAC\Exact Audio Copy\Flac\flac.exe
Additional command line options : -V -8 -T "Date=%year%" -T "Genre=%genre%" %source%
TOC of the extracted CD
     Track |   Start  |  Length  | Start sector | End sector
    ---------------------------------------------------------
        1  |  0:00.00 |  5:34.63 |         0    |    25112
        2  |  5:34.63 |  4:38.34 |     25113    |    45996
        3  | 10:13.22 |  7:01.02 |     45997    |    77573
        4  | 17:14.24 |  4:19.38 |     77574    |    97036
        5  | 21:33.62 |  2:29.05 |     97037    |   108216
        6  | 24:02.67 |  4:43.35 |    108217    |   129476
        7  | 28:46.27 |  5:03.18 |    129477    |   152219
        8  | 33:49.45 |  5:22.09 |    152220    |   176378
        9  | 39:11.54 |  1:11.19 |    176379    |   181722
Range status and errors
Selected range
     Filename C:\darkbrides\Fourth Monarchy - Amphilochia.wav
     Peak level 97.6 %
     Extraction speed 4.1 X
     Range quality 99.9 %
     Test CRC BE9AB48D
     Copy CRC BE9AB48D
     Copy OK
No errors occurred
AccurateRip summary
Track  1  accurately ripped (confidence 1)  [FEB9C23C]  (AR v2)
Track  2  accurately ripped (confidence 1)  [89AC7006]  (AR v2)
Track  3  accurately ripped (confidence 1)  [BF5ECD92]  (AR v2)
Track  4  accurately ripped (confidence 1)  [4F3CF390]  (AR v2)
Track  5  accurately ripped (confidence 1)  [47E7EF8C]  (AR v2)
Track  6  accurately ripped (confidence 1)  [F2047299]  (AR v2)
Track  7  accurately ripped (confidence 1)  [B94245EC]  (AR v2)
Track  8  accurately ripped (confidence 1)  [F5160A58]  (AR v2)
Track  9  accurately ripped (confidence 1)  [D0629DFE]  (AR v2)
All tracks accurately ripped
End of status report
---- AcoustID Plugin V1.2.0
Total fingerprints: 9
---- CUETools DB Plugin V2.1.6
[CTDB TOCID: DDRKxlXyMiHxO_DTrJBNKVtlFAY-] found
Submit result: DDRKxlXyMiHxO_DTrJBNKVtlFAY- has been confirmed
Track | CTDB Status
  1   | (4/4) Accurately ripped
  2   | (4/4) Accurately ripped
  3   | (4/4) Accurately ripped
  4   | (4/4) Accurately ripped
  5   | (4/4) Accurately ripped
  6   | (4/4) Accurately ripped
  7   | (4/4) Accurately ripped
  8   | (4/4) Accurately ripped
  9   | (4/4) Accurately ripped
==== Log checksum 685EEC33081AB57E5F087ABC4221A9CF6EB7ACE8B5DE0EAEB644F38AE35CE5F5 ====
Код:
REM GENRE "Black Metal"
REM DATE 2007
REM DISCID 67097609
REM COMMENT "ExactAudioCopy v1.5"
PERFORMER "Fourth Monarchy"
TITLE "Amphilochia"
REM COMPOSER ""
FILE "Fourth Monarchy - Amphilochia.flac" WAVE
  TRACK 01 AUDIO
    TITLE "Alkaest"
    PERFORMER "Fourth Monarchy"
    REM COMPOSER ""
    INDEX 01 00:00:00
  TRACK 02 AUDIO
    TITLE "La Torre di Sette Torri"
    PERFORMER "Fourth Monarchy"
    REM COMPOSER ""
    INDEX 01 05:34:63
  TRACK 03 AUDIO
    TITLE "Al Castello"
    PERFORMER "Fourth Monarchy"
    REM COMPOSER ""
    INDEX 01 10:13:22
  TRACK 04 AUDIO
    TITLE "Notre Dame. La Citta Gotica"
    PERFORMER "Fourth Monarchy"
    REM COMPOSER ""
    INDEX 01 17:14:24
  TRACK 05 AUDIO
    TITLE "Mistica Notte di uno Stilita"
    PERFORMER "Fourth Monarchy"
    REM COMPOSER ""
    INDEX 01 21:33:62
  TRACK 06 AUDIO
    TITLE "Antiochia"
    PERFORMER "Fourth Monarchy"
    REM COMPOSER ""
    INDEX 01 24:02:67
  TRACK 07 AUDIO
    TITLE "Il Sangue del Deicidio"
    PERFORMER "Fourth Monarchy"
    REM COMPOSER ""
    INDEX 01 28:46:27
  TRACK 08 AUDIO
    TITLE "Ars Naturae Ministra (Une Aventure Esoterique)"
    PERFORMER "Fourth Monarchy"
    REM COMPOSER ""
    INDEX 01 33:49:45
  TRACK 09 AUDIO
    TITLE "Aghia Sophia"
    PERFORMER "Fourth Monarchy"
    REM COMPOSER ""
    INDEX 01 39:11:54

Правила, инструкции, FAQ!!!
Торрент  Добавлен [03 май 2020, 19:37] Скачать торрент Магнет ссылка
Скачать торрент
[ Размер 14.16 КБ / Просмотров 4 ]

Статус
Проверен 
 
Размер  325.03 МБ
Приватный: Нет (DHT включён)
.torrent скачан  0
 


     Отправить личное сообщение
   
Страница 1 из 1
Показать сообщения за:  Поле сортировки  
Начать новую тему Ответить на тему


Сейчас этот форум просматривают: нет зарегистрированных пользователей и гости: 0


Вы не можете начинать темы
Вы не можете отвечать на сообщения
Вы не можете редактировать свои сообщения
Вы не можете удалять свои сообщения
Вы не можете добавлять вложения

Перейти:  
cron
cron