Начать новую тему Ответить на тему
Статистика раздачи
Размер: 530.46 МБ | Добавлен: 16 мар 2014, 00:52 | Скачали: 2
Сидеров: 1  [0 байт/сек]    Личеров: 0  [0 байт/сек]
Пред. тема | След. тема 

Автор
Сообщение

СообщениеДобавлено: 16 мар 2014, 00:52 

Ответить с цитатой 

Billy Idol: Idolize Yourself - The Very Best Of (2008)

Год: 2008
Лейбл: Capitol Records
Номер по каталогу: 509992 15143 26
Источник(релизер): CuteMute
Жанр: Rock & Roll, Hard Rock, Pop Rock, Synth-pop
Продолжительность: 01:17:45

Кодек: APE
Битрейт: Lossless

Треклист:
01. Dancing With Myself (w Generation X)
02. Hot In The City
03. White Wedding (Pt. 1)
04. Rebel Yell
05. Eyes Without A Face
06. Flesh For Fantasy
07. Catch My Fall
08. To Be A Lover
09. Don't Need A Gun
10. Sweet Sixteen
11. Mony, Mony
12. Cradle Of Love
13. L.A. Woman
14. Shock To The System
15. Speed
16. World Comin' Down
17. John Wayne
18. New Future Weapon
Код:
Код:
Exact Audio Copy V0.99 prebeta 4 from 23. January 2008

EAC extraction logfile from 15. February 2009, 14:44

Billy Idol / The Very Best Of Billy Idol

Used drive  : Optiarc DVD RW AD-7203A   Adapter: 0  ID: 0

Read mode               : Secure
Utilize accurate stream : Yes
Defeat audio cache      : Yes
Make use of C2 pointers : No

Read offset correction                      : 48
Overread into Lead-In and Lead-Out          : No
Fill up missing offset samples with silence : Yes
Delete leading and trailing silent blocks   : No
Null samples used in CRC calculations       : Yes
Used interface                              : Installed external ASPI interface

Used output format : Internal WAV Routines
Sample format      : 44.100 Hz; 16 Bit; Stereo

TOC of the extracted CD

     Track |   Start  |  Length  | Start sector | End sector
    ---------------------------------------------------------
        1  |  0:00.00 |  4:51.45 |         0    |    21869
        2  |  4:51.45 |  3:33.58 |     21870    |    37902
        3  |  8:25.28 |  4:13.21 |     37903    |    56898
        4  | 12:38.49 |  4:47.59 |     56899    |    78482
        5  | 17:26.33 |  4:58.21 |     78483    |   100853
        6  | 22:24.54 |  4:38.33 |    100854    |   121736
        7  | 27:03.12 |  3:42.31 |    121737    |   138417
        8  | 30:45.43 |  3:53.38 |    138418    |   155930
        9  | 34:39.06 |  5:24.67 |    155931    |   180297
       10  | 40:03.73 |  4:15.43 |    180298    |   199465
       11  | 44:19.41 |  5:00.16 |    199466    |   221981
       12  | 49:19.57 |  4:39.54 |    221982    |   242960
       13  | 53:59.36 |  4:04.48 |    242961    |   261308
       14  | 58:04.09 |  3:37.55 |    261309    |   277638
       15  | 61:41.64 |  4:17.52 |    277639    |   296965
       16  | 65:59.41 |  3:34.32 |    296966    |   313047
       17  | 69:33.73 |  4:15.07 |    313048    |   332179
       18  | 73:49.05 |  3:56.33 |    332180    |   349912

Range status and errors

Selected range

     Filename C:\My Music\Billy Idol_The very best of Billy Idol\Billy Idol - The Very Best Of Billy Idol.wav

     Peak level 99.9 %
     Range quality 99.9 %
     Copy CRC D8E9CE32
     Copy OK

No errors occurred

AccurateRip summary

Track  1  accurately ripped (confidence 4)  [80931F47]
Track  2  accurately ripped (confidence 4)  [FF7B18C5]
Track  3  accurately ripped (confidence 4)  [7D4A4BBE]
Track  4  accurately ripped (confidence 4)  [E2AC0235]
Track  5  accurately ripped (confidence 4)  [1BBD0AED]
Track  6  accurately ripped (confidence 4)  [614F2059]
Track  7  accurately ripped (confidence 4)  [CFEEC8D3]
Track  8  accurately ripped (confidence 4)  [7AFF99BC]
Track  9  accurately ripped (confidence 4)  [ADAF2A0E]
Track 10  accurately ripped (confidence 4)  [10AE839C]
Track 11  accurately ripped (confidence 4)  [3D75E72E]
Track 12  accurately ripped (confidence 4)  [680E7CDA]
Track 13  accurately ripped (confidence 4)  [4EDC9D62]
Track 14  accurately ripped (confidence 4)  [47681A60]
Track 15  accurately ripped (confidence 4)  [32B1C946]
Track 16  accurately ripped (confidence 4)  [95C53E4A]
Track 17  accurately ripped (confidence 4)  [244EF2CB]
Track 18  accurately ripped (confidence 4)  [30C75309]

All tracks accurately ripped

End of status report
Код:
Код:
-----------------------

DON'T MODIFY THIS FILE

-----------------------

PERFORMER: auCDtect Task Manager, ver. 1.6.0 RC1 build 1.6.0.1
Copyright (c) 2008-2010 y-soft. All rights reserved
http:/y-soft.org

ANALYZER: auCDtect: CD records authenticity detector, version 0.8.2
Copyright (c) 2004 Oleg Berngardt. All rights reserved.
Copyright (c) 2004 Alexander Djourik. All rights reserved.

FILE: Billy Idol - The Very Best Of Billy Idol.ape
  Size: 552904096 Hash: 4EF74F7BD2ADD9610389902DB9A4B325 Accuracy: -m0
  Conclusion: CDDA 100%
  Signature: A26099F6099ECCA9130185F8038714B2AD97D855

Правила, инструкции, FAQ!!!
Торрент  Добавлен [16 мар 2014, 00:52] Скачать торрент Магнет ссылка
Скачать торрент
[ Размер 11.85 КБ / Просмотров 39 ]

Статус  
 
Размер  530.46 МБ
Приватный: Нет (DHT включён)
.torrent скачан  2
 


     Отправить личное сообщение
   
Страница 1 из 1
Показать сообщения за:  Поле сортировки  
Начать новую тему Ответить на тему


Сейчас этот форум просматривают: нет зарегистрированных пользователей и гости: 0


Вы не можете начинать темы
Вы не можете отвечать на сообщения
Вы не можете редактировать свои сообщения
Вы не можете удалять свои сообщения
Вы не можете добавлять вложения

Перейти:  
cron
cron