Начать новую тему Ответить на тему
Статистика раздачи
Размер: 1.31 ГБ | Добавлен: 24 авг 2016, 11:50 | Скачали: 2
Сидеров: 4  [0 байт/сек]    Личеров: 2  [0 байт/сек]
Пред. тема | След. тема 

Автор
Сообщение

СообщениеДобавлено: 24 авг 2016, 11:50 

Ответить с цитатой 

The Beatles – Beatles For Sale

Жанр: Beat, Rock & Roll
Носитель: LP
Год выпуска: 1969 (Reissue)
Лейбл: Odeon (1C 062-04 200)
Страна-производитель: Germany
Аудио кодек: FLAC
Тип рипа: image+.cue
Формат записи: 24/192
Формат раздачи: 24/192
Продолжительность: 00:34:42
Треклист:
01. No Reply (2:20)
02. I'm A Loser (2:34)
03. Baby's In Black (2:10)
04. Rock And Roll Music (2:35)
05. I'll Follow The Sun (1:53)
06. Mr. Moonlight (2:43)
07. Kansas City / Hey, Hey, Hey, Hey (2:40)
08. Eight Days A Week (2:48)
09. Words Of Love (2:09)
10. Honey Don't (3:02)
11. Every Little Thing (2:08)
12. I Don't Want To Spoil The Party (2:37)
13. What You're Doing (2:35)
14. Everybody's Trying To Be My Baby (2:28)

Источник оцифровки: автором раздачи
Код класса состояния винила: Ex
Устройство воспроизведения: Pro-Ject 1-Xpression III
Головка звукоснимателя: Goldring 1012 GX
Предварительный усилитель: Pro-Ject Phono Box DS+
АЦП: ESI Juli@
Программа-оцифровщик: WavePurity
Обработка: Нет
В раздаче
Доп. информация:
Код:
foobar2000 1.3.2 / Dynamic Range Meter 1.1.1
log date: 2014-08-10 15:54:34

--------------------------------------------------------------------------------
Analyzed: The Beatles / Beatles For Sale
--------------------------------------------------------------------------------

DR         Peak         RMS     Duration Track
--------------------------------------------------------------------------------
DR10      -2.44 dB   -14.50 dB      2:20 01-No Reply
DR9       -2.91 dB   -14.23 dB      2:34 02-I'm A Loser
DR10      -2.95 dB   -14.39 dB      2:10 03-Baby's In Black
DR10      -1.77 dB   -13.03 dB      2:35 04-Rock And Roll Music
DR10      -2.52 dB   -15.35 dB      1:53 05-I'll Follow The Sun
DR10      -2.30 dB   -14.22 dB      2:43 06-Mr. Moonlight
DR10      -2.09 dB   -13.37 dB      2:40 07-Kansas City / Hey, Hey, Hey, Hey
DR11      -3.83 dB   -16.49 dB      2:48 08-Eight Days A Week
DR10      -3.57 dB   -16.05 dB      2:09 09-Words Of Love
DR12      -1.96 dB   -16.51 dB      3:02 10-Honey Don't
DR12      -3.31 dB   -17.69 dB      2:08 11-Every Little Thing
DR10      -4.10 dB   -16.14 dB      2:37 12-I Don't Want To Spoil The Party
DR11      -4.90 dB   -17.84 dB      2:35 13-What You're Doing
DR10      -4.29 dB   -16.26 dB      2:28 14-Everybody's Trying To Be My Baby
--------------------------------------------------------------------------------

Number of tracks:  14
Official DR value: DR10

Samplerate:        192000 Hz
Channels:          2
Bits per sample:   24
Bitrate:           5130 kbps
Codec:             FLAC
================================================================================
Код:
[url=http://radikal.ru/fp/06a696a787634c649f850c8000088270][img]http://s020.radikal.ru/i705/1408/9c/42ddc55aba86t.jpg[/img][/url][url=http://radikal.ru/fp/ebce4bac4ca441bd82dc2a0e4915f338][img]http://s52.radikal.ru/i138/1408/e5/3424905b7a88t.jpg[/img][/url]
Правила, инструкции, FAQ!!!
Торрент  Добавлен [24 авг 2016, 11:50] Скачать торрент Магнет ссылка
Скачать торрент
[ Размер 13.96 КБ / Просмотров 17 ]

Статус
Проверен 
 
Размер  1.31 ГБ
Приватный: Нет (DHT включён)
.torrent скачан  2
 


     Отправить личное сообщение
   
Страница 1 из 1
Показать сообщения за:  Поле сортировки  
Начать новую тему Ответить на тему


Сейчас этот форум просматривают: нет зарегистрированных пользователей и гости: 0


Вы не можете начинать темы
Вы не можете отвечать на сообщения
Вы не можете редактировать свои сообщения
Вы не можете удалять свои сообщения
Вы не можете добавлять вложения

Перейти:  
cron