Начать новую тему Ответить на тему
Статистика раздачи
Размер: 1.11 ГБ | Добавлен: 16 мар 2014, 00:37 | Скачали: 0
Сидеров: 1  [0 байт/сек]    Личеров: 0  [0 байт/сек]
Пред. тема | След. тема 

Автор
Сообщение

СообщениеДобавлено: 16 мар 2014, 00:37 

Ответить с цитатой 

Beady Eye (ex.Oasis) - 2 альбома (2011 - 2013)



Год:
2011 - 2013 Жанр: Alternative, Brit Pop, Indie Продолжительность: 02:31:58 Кодек: FLAC Битрейт: Lossless

Трек лист:
Треклист:

01. Four Letter Word (4:16)
02. Millionaire (3:21)
03. The Roller (3:35)
04. Beatles And Stones (2:57)
05. Wind Up Dream (3:27)
06. Bring The Light (3:40)
07. For Anyone (2:16)
08. Kill For A Dream (4:43)
09. Standing On The Edge Of The Noise (2:54)
10. Wigwam (6:39)
11. Three Ring Circus (3:09)
12. The Beat Goes On (4:45)
13. The Morning Sun (6:06)
Код:
Код:
Exact Audio Copy V1.0 beta 1 from 15. November 2010

EAC extraction logfile from 25. February 2011, 13:49

Beady Eye / Different Gear, Still Speeding

Used drive  : HL-DT-STDVDRAM GH22LS50   Adapter: 1  ID: 1

Read mode               : Secure
Utilize accurate stream : Yes
Defeat audio cache      : Yes
Make use of C2 pointers : No

Read offset correction                      : 667
Overread into Lead-In and Lead-Out          : No
Fill up missing offset samples with silence : Yes
Delete leading and trailing silent blocks   : No
Null samples used in CRC calculations       : Yes
Used interface                              : Native Win32 interface for Win NT & 2000
Gap handling                                : Appended to previous track

Used output format              : User Defined Encoder
Selected bitrate                : 128 kBit/s
Quality                         : High
Add ID3 tag                     : No
Command line compressor         : C:\Program Files (x86)\Exact Audio Copy\Flac\flac.exe
Additional command line options : -V -8 -T "artist=%a" -T "title=%t" -T "album=%g" -T "date=%y" -T "tracknumber=%n" -T "genre=%m" %s

TOC of the extracted CD

     Track |   Start  |  Length  | Start sector | End sector
    ---------------------------------------------------------
        1  |  0:00.00 |  4:16.34 |         0    |    19233
        2  |  4:16.34 |  3:20.38 |     19234    |    34271
        3  |  7:36.72 |  3:35.01 |     34272    |    50397
        4  | 11:11.73 |  2:57.15 |     50398    |    63687
        5  | 14:09.13 |  3:27.19 |     63688    |    79231
        6  | 17:36.32 |  3:39.41 |     79232    |    95697
        7  | 21:15.73 |  2:16.27 |     95698    |   105924
        8  | 23:32.25 |  4:43.00 |    105925    |   127149
        9  | 28:15.25 |  2:53.61 |    127150    |   140185
       10  | 31:09.11 |  6:39.12 |    140186    |   170122
       11  | 37:48.23 |  3:09.15 |    170123    |   184312
       12  | 40:57.38 |  4:44.63 |    184313    |   205675
       13  | 45:42.26 |  6:06.33 |    205676    |   233158

Track  1

     Filename D:\what.cd\Beady Eye\Different Gear, Still Speeding\01 - Four Letter Word.wav

     Pre-gap length  0:00:02.00

     Peak level 99.9 %
     Extraction speed 1.0 X
     Track quality 100.0 %
     Test CRC 55B8A7D7
     Copy CRC 55B8A7D7
     Track not present in AccurateRip database
     Copy OK

Track  2

     Filename D:\what.cd\Beady Eye\Different Gear, Still Speeding\02 - Millionaire.wav

     Peak level 99.3 %
     Extraction speed 1.1 X
     Track quality 100.0 %
     Test CRC 8A56BC54
     Copy CRC 8A56BC54
     Track not present in AccurateRip database
     Copy OK

Track  3

     Filename D:\what.cd\Beady Eye\Different Gear, Still Speeding\03 - The Roller.wav

     Pre-gap length  0:00:00.32

     Peak level 99.9 %
     Extraction speed 1.2 X
     Track quality 100.0 %
     Test CRC C1323894
     Copy CRC C1323894
     Track not present in AccurateRip database
     Copy OK

Track  4

     Filename D:\what.cd\Beady Eye\Different Gear, Still Speeding\04 - Beatles And Stones.wav

     Peak level 94.3 %
     Extraction speed 1.2 X
     Track quality 100.0 %
     Test CRC 126ED9A2
     Copy CRC 126ED9A2
     Track not present in AccurateRip database
     Copy OK

Track  5

     Filename D:\what.cd\Beady Eye\Different Gear, Still Speeding\05 - Wind Up Dream.wav

     Pre-gap length  0:00:00.12

     Peak level 99.9 %
     Extraction speed 1.4 X
     Track quality 100.0 %
     Test CRC 738AE499
     Copy CRC 738AE499
     Track not present in AccurateRip database
     Copy OK

Track  6

     Filename D:\what.cd\Beady Eye\Different Gear, Still Speeding\06 - Bring The Light.wav

     Peak level 99.6 %
     Extraction speed 1.4 X
     Track quality 100.0 %
     Test CRC A9D85AAC
     Copy CRC A9D85AAC
     Track not present in AccurateRip database
     Copy OK

Track  7

     Filename D:\what.cd\Beady Eye\Different Gear, Still Speeding\07 - For Anyone.wav

     Peak level 99.9 %
     Extraction speed 1.3 X
     Track quality 100.0 %
     Test CRC DAEDC1DB
     Copy CRC DAEDC1DB
     Track not present in AccurateRip database
     Copy OK

Track  8

     Filename D:\what.cd\Beady Eye\Different Gear, Still Speeding\08 - Kill For A Dream.wav

     Pre-gap length  0:00:00.56

     Peak level 99.9 %
     Extraction speed 1.6 X
     Track quality 100.0 %
     Test CRC AE836B47
     Copy CRC AE836B47
     Track not present in AccurateRip database
     Copy OK

Track  9

     Filename D:\what.cd\Beady Eye\Different Gear, Still Speeding\09 - Standing On The Edge Of The Noise.wav

     Pre-gap length  0:00:01.24

     Peak level 95.2 %
     Extraction speed 1.6 X
     Track quality 100.0 %
     Test CRC D4501BB1
     Copy CRC D4501BB1
     Track not present in AccurateRip database
     Copy OK

Track 10

     Filename D:\what.cd\Beady Eye\Different Gear, Still Speeding\10 - Wigwam.wav

     Pre-gap length  0:00:01.56

     Peak level 89.2 %
     Extraction speed 1.8 X
     Track quality 100.0 %
     Test CRC ED388356
     Copy CRC ED388356
     Track not present in AccurateRip database
     Copy OK

Track 11

     Filename D:\what.cd\Beady Eye\Different Gear, Still Speeding\11 - Three Ring Circus.wav

     Peak level 99.6 %
     Extraction speed 1.7 X
     Track quality 100.0 %
     Test CRC B2DCFBEA
     Copy CRC B2DCFBEA
     Track not present in AccurateRip database
     Copy OK

Track 12

     Filename D:\what.cd\Beady Eye\Different Gear, Still Speeding\12 - The Beat Goes On.wav

     Peak level 99.9 %
     Extraction speed 1.9 X
     Track quality 100.0 %
     Test CRC 5821BAEA
     Copy CRC 5821BAEA
     Track not present in AccurateRip database
     Copy OK

Track 13

     Filename D:\what.cd\Beady Eye\Different Gear, Still Speeding\13 - The Morning Sun.wav

     Peak level 99.9 %
     Extraction speed 2.1 X
     Track quality 100.0 %
     Test CRC 8D8A16FE
     Copy CRC 8D8A16FE
     Track not present in AccurateRip database
     Copy OK

None of the tracks are present in the AccurateRip database

No errors occurred

End of status report

==== Log checksum 95DA8E3331FB8354E29324023BA61F62EA31E724E399019EC0D45503655F69E9 ====
Код:
Код:
-----------------------

DON'T MODIFY THIS FILE

-----------------------

PERFORMER: auCDtect Task Manager, ver. 1.5.1RC4 build 1.5.1.5
Copyright (c) 2008-2010 y-soft. All rights reserved
http:/y-soft.org

ANALYZER: auCDtect: CD records authenticity detector, version 0.8.2
Copyright (c) 2004 Oleg Berngardt. All rights reserved.
Copyright (c) 2004 Alexander Djourik. All rights reserved.

FILE: 13 - The Morning Sun.flac
  Size: 42300998 Hash: FC9956C830110FFD656C4033C0032F32 Accuracy: -m0
  Conclusion: CDDA 100%
  Signature: 5CA8FF61022C181583E330186D3247D293AB849E
FILE: 12 - The Beat Goes On.flac
  Size: 36785787 Hash: D15B16821851A03C483FB89280CD9824 Accuracy: -m0
  Conclusion: CDDA 100%
  Signature: CC45BED7DE5BBDEF4639E84B367029DB668A4BB5
FILE: 11 - Three Ring Circus.flac
  Size: 24252274 Hash: 70B269CFEBF5790C7B79949CA4CDD229 Accuracy: -m0
  Conclusion: CDDA 99%
  Signature: EBD9DB857EB6EB76A52CC14986C8FC56930E063D
FILE: 10 - Wigwam.flac
  Size: 47772579 Hash: 509283B7E8CB5EF2A56AB657F800B99D Accuracy: -m0
  Conclusion: CDDA 100%
  Signature: 96F4EC251B23A6062F1FAEEABC801E3FB6FCBEF6
FILE: 09 - Standing On The Edge Of The Noise.flac
  Size: 21171639 Hash: 5446BBAB214B9F37AA20DC2233E03748 Accuracy: -m0
  Conclusion: CDDA 100%
  Signature: 42E9FE06FCBD6039AA282C938EF3BF2AF47AD449
FILE: 08 - Kill For A Dream.flac
  Size: 34889433 Hash: 20E4E930C13AA134585E66D686E0FC55 Accuracy: -m0
  Conclusion: CDDA 100%
  Signature: 6B33CCCAEFD0F665B834E385A8975D33F7B7A157
FILE: 07 - For Anyone.flac
  Size: 17961783 Hash: 1423E832C0475899961B5C27BC4102EB Accuracy: -m0
  Conclusion: CDDA 100%
  Signature: 3C4C15D4C4D0D393CBADF3BCA1063D945517DAF5
FILE: 06 - Bring The Light.flac
  Size: 29200665 Hash: BBDAF586AA75BEB0C934FFFCB4D97BED Accuracy: -m0
  Conclusion: CDDA 100%
  Signature: 177553D6ECB9B4E971522D84F760739B7F49092C
FILE: 05 - Wind Up Dream.flac
  Size: 27572618 Hash: 89015D20D2D11023499F3C94BD4ED332 Accuracy: -m0
  Conclusion: CDDA 100%
  Signature: F4FCA3847A03754449DEDB29AF77296B38C095B4
FILE: 04 - Beatles And Stones.flac
  Size: 22846430 Hash: 77AAE1A0AC41EC9A2F7DBCE47044055D Accuracy: -m0
  Conclusion: CDDA 99%
  Signature: 5F6C8D0A47F4966F3302F44A7051631469FA3529
FILE: 03 - The Roller.flac
  Size: 26630150 Hash: CCFCE86C819214BDDFFED19F23B65D54 Accuracy: -m0
  Conclusion: CDDA 100%
  Signature: 2EDADF552BFB7773FC95F8594241EA7BA7652F01
FILE: 02 - Millionaire.flac
  Size: 26033270 Hash: 336A0A960296A23367183687B3A5E3C3 Accuracy: -m0
  Conclusion: CDDA 100%
  Signature: 06FB9878A512523B2E5EFA634F18923FAA3D96C5
FILE: 01 - Four Letter Word.flac
  Size: 33569364 Hash: EE838A0FCFF1DED47F01BB66AFFAB0D1 Accuracy: -m0
  Conclusion: CDDA 100%
  Signature: 5AB243F924AD210A9B105D3BF9467920D2962345
Продолжительность: 00:51:49
#777Треклист:

01. Rak Them Out - Documentary (12:11)
02. Bring The Light (Video Version) (3:40)
03. Four Letter Word (Video Version) (4:23)
04. Sons Of The Stage (Video Version) (4:49)
Код:
Код:
Нет, наверное и не должно быть для DVD
Код:
Код:
-----------------------

DON'T MODIFY THIS FILE

-----------------------

PERFORMER: auCDtect Task Manager, ver. 1.5.1RC4 build 1.5.1.5
Copyright (c) 2008-2010 y-soft. All rights reserved
http:/y-soft.org

ANALYZER: auCDtect: CD records authenticity detector, version 0.8.2
Copyright (c) 2004 Oleg Berngardt. All rights reserved.
Copyright (c) 2004 Alexander Djourik. All rights reserved.

FILE: 04 - Sons Of The Stage (Video Version).flac
  Size: 30803209 Hash: AB136BF65BB837DE370FBD36145A8B5E Accuracy: -m0
  Conclusion: MPEG 95%
  Signature: 66C1B8B59BE3EA960F5E283F564D804A28AD95C7
FILE: 03 - Four Letter Word (Video Version).flac
  Size: 32287005 Hash: 7063926612CC0B08C81833460262352F Accuracy: -m0
  Conclusion: CDDA 100%
  Signature: E7A530D353F2685547D13A00326320CA8BDE46E9
FILE: 02 - Bring The Light (Video Version).flac
  Size: 27417172 Hash: D51632D138D3E88CB97E4DBA571E08DE Accuracy: -m0
  Conclusion: MPEG 95%
  Signature: 9D447BC2835F89C0641D82CC4FC452BA14837C5A
FILE: 01 - Rak Them Out - Documentary.flac
  Size: 75919971 Hash: EBA316A4FDFC628F518C01F33B593E92 Accuracy: -m0
  Conclusion: CDDA 100%
  Signature: 8C5E2C2D11A8DE4FF97E82EBCBB56EF4BB2897C0

Продолжительность: 00:25:03
flac
#777Треклист:

01. Flick Of The Finger (3:46)
02. Soul Love (5:10)
03. Face The Crowd (4:02)
04. Second Bite Of The Apple (3:28)
05. Soon Come Tomorrow (4:58)
06. Iz Rite (3:27)
07. I'm Just Saying (3:45)
08. Don't Brother Me (7:31)
09. Shine A Light (5:05)
10. Ballroom Figured (3:31)
11. Start Anew (4:34)
12. Dreaming Of Some Space (1:51)
13. The World's Not Set In Stone (4:46)
14. Back After The Break (4:10)
15. Off At The Next Exit (3:37)
16. Girls In Uniform (6:24)
17. Evil Eye (5:01)
Код:
Код:
X Lossless Decoder version 20130407 (143.0)

XLD extraction logfile from 2013-06-04 20:47:36 +0900

Beady Eye / BE

Used drive : OPTIARC DVD RW AD-5670S (revision 2AHI)
Media type : Pressed CD

Ripper mode             : XLD Secure Ripper
Disable audio cache     : OK for the drive with a cache less than 1375KiB
Make use of C2 pointers : NO
Read offset correction  : 48
Max retry count         : 100
Gap status              : Analyzed, Appended

TOC of the extracted CD
     Track |   Start  |  Length  | Start sector | End sector
    ---------------------------------------------------------
        1  | 00:00:00 | 03:45:48 |         0    |    16922
        2  | 03:45:48 | 05:10:10 |     16923    |    40182
        3  | 08:55:58 | 04:02:35 |     40183    |    58367
        4  | 12:58:18 | 03:28:13 |     58368    |    73980
        5  | 16:26:31 | 04:58:19 |     73981    |    96349
        6  | 21:24:50 | 03:26:48 |     96350    |   111847
        7  | 24:51:23 | 03:45:10 |    111848    |   128732
        8  | 28:36:33 | 07:30:44 |    128733    |   162526
        9  | 36:07:02 | 05:04:54 |    162527    |   185380
       10  | 41:11:56 | 03:31:03 |    185381    |   201208
       11  | 44:42:59 | 04:34:05 |    201209    |   221763
       12  | 49:16:64 | 01:51:28 |    221764    |   230116
       13  | 51:08:17 | 04:46:15 |    230117    |   251581
       14  | 55:54:32 | 04:09:40 |    251582    |   270296
       15  | 60:03:72 | 03:37:27 |    270297    |   286598
       16  | 63:41:24 | 06:23:44 |    286599    |   315367
       17  | 70:04:68 | 05:01:15 |    315368    |   337957

AccurateRip Summary
    Disc not found in AccurateRip DB.

All Tracks
    Album gain               : -10.36 dB
    Peak                     : 1.000000
    Statistics
        Read error                           : 0
        Jitter error (maybe fixed)           : 0
        Retry sector count                   : 0
        Damaged sector count                 : 0

Track 01
    Filename : /Users/funkymiracle/Music/iTunes/iTunes Music/Music/Beady Eye/Beady Eye - BE (2013) [FLAC]/01 - Beady Eye - Flick Of The Finger.flac
    Pre-gap length : 00:02:00

    Track gain               : -10.47 dB
    Peak                     : 0.993805
    CRC32 hash (test run)    : 48732AAB
    CRC32 hash               : 48732AAB
    CRC32 hash (skip zero)   : A0A9F723
    AccurateRip v1 signature : AF2883A1
    AccurateRip v2 signature : 875EB969
        ->Track not present in AccurateRip database.
    Statistics
        Read error                           : 0
        Jitter error (maybe fixed)           : 0
        Retry sector count                   : 0
        Damaged sector count                 : 0

Track 02
    Filename : /Users/funkymiracle/Music/iTunes/iTunes Music/Music/Beady Eye/Beady Eye - BE (2013) [FLAC]/02 - Beady Eye - Soul Love.flac

    Track gain               : -7.82 dB
    Peak                     : 1.000000
    CRC32 hash (test run)    : ED2DBCB9
    CRC32 hash               : ED2DBCB9
    CRC32 hash (skip zero)   : 306FE139
    AccurateRip v1 signature : 2AB3422C
    AccurateRip v2 signature : DDB1FE3C
        ->Track not present in AccurateRip database.
    Statistics
        Read error                           : 0
        Jitter error (maybe fixed)           : 0
        Retry sector count                   : 0
        Damaged sector count                 : 0

Track 03
    Filename : /Users/funkymiracle/Music/iTunes/iTunes Music/Music/Beady Eye/Beady Eye - BE (2013) [FLAC]/03 - Beady Eye - Face The Crowd.flac

    Track gain               : -11.62 dB
    Peak                     : 1.000000
    CRC32 hash (test run)    : 46BC916A
    CRC32 hash               : 46BC916A
    CRC32 hash (skip zero)   : 2DF98F56
    AccurateRip v1 signature : 53F3C210
    AccurateRip v2 signature : E38E78DF
        ->Track not present in AccurateRip database.
    Statistics
        Read error                           : 0
        Jitter error (maybe fixed)           : 0
        Retry sector count                   : 0
        Damaged sector count                 : 0

Track 04
    Filename : /Users/funkymiracle/Music/iTunes/iTunes Music/Music/Beady Eye/Beady Eye - BE (2013) [FLAC]/04 - Beady Eye - Second Bite Of The Apple.flac

    Track gain               : -11.21 dB
    Peak                     : 1.000000
    CRC32 hash (test run)    : E640A5FA
    CRC32 hash               : E640A5FA
    CRC32 hash (skip zero)   : 5C0E8909
    AccurateRip v1 signature : 5E1F92B6
    AccurateRip v2 signature : 92DB627A
        ->Track not present in AccurateRip database.
    Statistics
        Read error                           : 0
        Jitter error (maybe fixed)           : 0
        Retry sector count                   : 0
        Damaged sector count                 : 0

Track 05
    Filename : /Users/funkymiracle/Music/iTunes/iTunes Music/Music/Beady Eye/Beady Eye - BE (2013) [FLAC]/05 - Beady Eye - Soon Come Tomorrow.flac

    Track gain               : -9.97 dB
    Peak                     : 1.000000
    CRC32 hash (test run)    : ADC50A46
    CRC32 hash               : ADC50A46
    CRC32 hash (skip zero)   : 0D0E2C16
    AccurateRip v1 signature : D847AD47
    AccurateRip v2 signature : 406F6773
        ->Track not present in AccurateRip database.
    Statistics
        Read error                           : 0
        Jitter error (maybe fixed)           : 0
        Retry sector count                   : 0
        Damaged sector count                 : 0

Track 06
    Filename : /Users/funkymiracle/Music/iTunes/iTunes Music/Music/Beady Eye/Beady Eye - BE (2013) [FLAC]/06 - Beady Eye - Iz Rite.flac

    Track gain               : -10.60 dB
    Peak                     : 1.000000
    CRC32 hash (test run)    : 8D0A4CAB
    CRC32 hash               : 8D0A4CAB
    CRC32 hash (skip zero)   : 0F3AEEE2
    AccurateRip v1 signature : 661BC2E6
    AccurateRip v2 signature : A8827A03
        ->Track not present in AccurateRip database.
    Statistics
        Read error                           : 0
        Jitter error (maybe fixed)           : 0
        Retry sector count                   : 0
        Damaged sector count                 : 0

Track 07
    Filename : /Users/funkymiracle/Music/iTunes/iTunes Music/Music/Beady Eye/Beady Eye - BE (2013) [FLAC]/07 - Beady Eye - I'm Just Saying.flac

    Track gain               : -11.63 dB
    Peak                     : 1.000000
    CRC32 hash (test run)    : A278A1DF
    CRC32 hash               : A278A1DF
    CRC32 hash (skip zero)   : 8ECA93E3
    AccurateRip v1 signature : EA6CC000
    AccurateRip v2 signature : 2119CC2F
        ->Track not present in AccurateRip database.
    Statistics
        Read error                           : 0
        Jitter error (maybe fixed)           : 0
        Retry sector count                   : 0
        Damaged sector count                 : 0

Track 08
    Filename : /Users/funkymiracle/Music/iTunes/iTunes Music/Music/Beady Eye/Beady Eye - BE (2013) [FLAC]/08 - Beady Eye - Don't Brother Me.flac

    Track gain               : -6.95 dB
    Peak                     : 1.000000
    CRC32 hash (test run)    : 91809016
    CRC32 hash               : 91809016
    CRC32 hash (skip zero)   : BDD4D586
    AccurateRip v1 signature : 014EC592
    AccurateRip v2 signature : E8A4E12E
        ->Track not present in AccurateRip database.
    Statistics
        Read error                           : 0
        Jitter error (maybe fixed)           : 0
        Retry sector count                   : 0
        Damaged sector count                 : 0

Track 09
    Filename : /Users/funkymiracle/Music/iTunes/iTunes Music/Music/Beady Eye/Beady Eye - BE (2013) [FLAC]/09 - Beady Eye - Shine A Light.flac

    Track gain               : -9.51 dB
    Peak                     : 1.000000
    CRC32 hash (test run)    : C559A276
    CRC32 hash               : C559A276
    CRC32 hash (skip zero)   : 3F448BB9
    AccurateRip v1 signature : DF520F7A
    AccurateRip v2 signature : CAE4868A
        ->Track not present in AccurateRip database.
    Statistics
        Read error                           : 0
        Jitter error (maybe fixed)           : 0
        Retry sector count                   : 0
        Damaged sector count                 : 0

Track 10
    Filename : /Users/funkymiracle/Music/iTunes/iTunes Music/Music/Beady Eye/Beady Eye - BE (2013) [FLAC]/10 - Beady Eye - Ballroom Figured.flac

    Track gain               : -6.10 dB
    Peak                     : 1.000000
    CRC32 hash (test run)    : 8C67F500
    CRC32 hash               : 8C67F500
    CRC32 hash (skip zero)   : 1F28FB4D
    AccurateRip v1 signature : D286AF5D
    AccurateRip v2 signature : DCD5C4FF
        ->Track not present in AccurateRip database.
    Statistics
        Read error                           : 0
        Jitter error (maybe fixed)           : 0
        Retry sector count                   : 0
        Damaged sector count                 : 0

Track 11
    Filename : /Users/funkymiracle/Music/iTunes/iTunes Music/Music/Beady Eye/Beady Eye - BE (2013) [FLAC]/11 - Beady Eye - Start Anew.flac

    Track gain               : -8.64 dB
    Peak                     : 1.000000
    CRC32 hash (test run)    : 46818D6C
    CRC32 hash               : 46818D6C
    CRC32 hash (skip zero)   : 14F4999C
    AccurateRip v1 signature : 8F050EAE
    AccurateRip v2 signature : 1CA9DB91
        ->Track not present in AccurateRip database.
    Statistics
        Read error                           : 0
        Jitter error (maybe fixed)           : 0
        Retry sector count                   : 0
        Damaged sector count                 : 0

Track 12
    Filename : /Users/funkymiracle/Music/iTunes/iTunes Music/Music/Beady Eye/Beady Eye - BE (2013) [FLAC]/12 - Beady Eye - Dreaming Of Some Space.flac

    Track gain               : -5.68 dB
    Peak                     : 1.000000
    CRC32 hash (test run)    : 5A290B34
    CRC32 hash               : 5A290B34
    CRC32 hash (skip zero)   : D9CA7AA4
    AccurateRip v1 signature : 667E00C9
    AccurateRip v2 signature : BFDE4158
        ->Track not present in AccurateRip database.
    Statistics
        Read error                           : 0
        Jitter error (maybe fixed)           : 0
        Retry sector count                   : 0
        Damaged sector count                 : 0

Track 13
    Filename : /Users/funkymiracle/Music/iTunes/iTunes Music/Music/Beady Eye/Beady Eye - BE (2013) [FLAC]/13 - Beady Eye - The World's Not Set In Stone.flac

    Track gain               : -10.19 dB
    Peak                     : 1.000000
    CRC32 hash (test run)    : 153CFFFB
    CRC32 hash               : 153CFFFB
    CRC32 hash (skip zero)   : 458DF018
    AccurateRip v1 signature : 0CCFD38B
    AccurateRip v2 signature : 8C8B97F4
        ->Track not present in AccurateRip database.
    Statistics
        Read error                           : 0
        Jitter error (maybe fixed)           : 0
        Retry sector count                   : 0
        Damaged sector count                 : 0

Track 14
    Filename : /Users/funkymiracle/Music/iTunes/iTunes Music/Music/Beady Eye/Beady Eye - BE (2013) [FLAC]/14 - Beady Eye - Back After The Break.flac

    Track gain               : -8.45 dB
    Peak                     : 1.000000
    CRC32 hash (test run)    : AA28F135
    CRC32 hash               : AA28F135
    CRC32 hash (skip zero)   : D955038E
    AccurateRip v1 signature : 5B8DCA23
    AccurateRip v2 signature : 0BAC4269
        ->Track not present in AccurateRip database.
    Statistics
        Read error                           : 0
        Jitter error (maybe fixed)           : 0
        Retry sector count                   : 0
        Damaged sector count                 : 0

Track 15
    Filename : /Users/funkymiracle/Music/iTunes/iTunes Music/Music/Beady Eye/Beady Eye - BE (2013) [FLAC]/15 - Beady Eye - Off At The Next Exit.flac

    Track gain               : -8.60 dB
    Peak                     : 1.000000
    CRC32 hash (test run)    : 6E6BEEEE
    CRC32 hash               : 6E6BEEEE
    CRC32 hash (skip zero)   : 62EEFD10
    AccurateRip v1 signature : 0BC12C57
    AccurateRip v2 signature : 3EC435F4
        ->Track not present in AccurateRip database.
    Statistics
        Read error                           : 0
        Jitter error (maybe fixed)           : 0
        Retry sector count                   : 0
        Damaged sector count                 : 0

Track 16
    Filename : /Users/funkymiracle/Music/iTunes/iTunes Music/Music/Beady Eye/Beady Eye - BE (2013) [FLAC]/16 - Beady Eye - Girls In Uniform.flac

    Track gain               : -8.66 dB
    Peak                     : 1.000000
    CRC32 hash (test run)    : 590B3D2D
    CRC32 hash               : 590B3D2D
    CRC32 hash (skip zero)   : AA686309
    AccurateRip v1 signature : ACBBA2D9
    AccurateRip v2 signature : C7BA963D
        ->Track not present in AccurateRip database.
    Statistics
        Read error                           : 0
        Jitter error (maybe fixed)           : 0
        Retry sector count                   : 0
        Damaged sector count                 : 0

Track 17
    Filename : /Users/funkymiracle/Music/iTunes/iTunes Music/Music/Beady Eye/Beady Eye - BE (2013) [FLAC]/17 - Beady Eye - Evil Eye.flac

    Track gain               : -10.29 dB
    Peak                     : 1.000000
    CRC32 hash (test run)    : A0D3DA45
    CRC32 hash               : A0D3DA45
    CRC32 hash (skip zero)   : A971A606
    AccurateRip v1 signature : 3C66253F
    AccurateRip v2 signature : 77B19E50
        ->Track not present in AccurateRip database.
    Statistics
        Read error                           : 0
        Jitter error (maybe fixed)           : 0
        Retry sector count                   : 0
        Damaged sector count                 : 0

No errors occurred

End of status report
Код:
Код:
-----------------------

DON'T MODIFY THIS FILE

-----------------------

PERFORMER: auCDtect Task Manager, ver. 1.6.0 RC1 build 1.6.0.1
Copyright (c) 2008-2010 y-soft. All rights reserved
http:/y-soft.org

ANALYZER: auCDtect: CD records authenticity detector, version 0.8.2
Copyright (c) 2004 Oleg Berngardt. All rights reserved.
Copyright (c) 2004 Alexander Djourik. All rights reserved.

FILE: 17 - Beady Eye - Evil Eye.flac
  Size: 34731972 Hash: 4674C81344C72A413DB99B6A19EB1A69 Accuracy: -m0
  Conclusion: CDDA 99%
  Signature: B4149C3BAEAB1CCBA1A19CC0813F9FEB2C739D85
FILE: 16 - Beady Eye - Girls In Uniform.flac
  Size: 45096638 Hash: 2D8304E3DE286066CF62750612528B12 Accuracy: -m0
  Conclusion: CDDA 100%
  Signature: B7C6F482834E4EAE1BC81FC367F5ECABEF787499
FILE: 15 - Beady Eye - Off At The Next Exit.flac
  Size: 23439231 Hash: EB2F8A8F090668CE1F7EF0A9AD842BFE Accuracy: -m0
  Conclusion: CDDA 100%
  Signature: DBBDD007181199EC3E153840B52DC845813F46D2
FILE: 14 - Beady Eye - Back After The Break.flac
  Size: 26339956 Hash: 989AEC169D358DD2D249F41A80417EDC Accuracy: -m0
  Conclusion: CDDA 100%
  Signature: A521F95A22E41F069E8FDEFF26287C29C26DA4FF
FILE: 13 - Beady Eye - The World's Not Set In Stone.flac
  Size: 34620390 Hash: 005A0A655A6A1B429DE3D14A19A8E482 Accuracy: -m0
  Conclusion: CDDA 100%
  Signature: 2732B548AE8AA65E254AA06C310A63F296B4A671
FILE: 12 - Beady Eye - Dreaming Of Some Space.flac
  Size: 11817267 Hash: 33A82F15F8F3CC1D0B7EBFECC57BF070 Accuracy: -m0
  Conclusion: CDDA 100%
  Signature: BF09AB33E574B12ED6DB8252879C326B3EDA3387
FILE: 11 - Beady Eye - Start Anew.flac
  Size: 28542463 Hash: 5A3993C017441ECBC26F858B31EB1C1D Accuracy: -m0
  Conclusion: CDDA 100%
  Signature: 96D4FA02EE87DC06C1C8E87479FC9EF1A28D0B07
FILE: 10 - Beady Eye - Ballroom Figured.flac
  Size: 20479578 Hash: 4E295AFEE9194A7A7B6412D3FD822738 Accuracy: -m0
  Conclusion: CDDA 100%
  Signature: FCE78672239531488A1CAE759F4413A5EE1E7B2C
FILE: 09 - Beady Eye - Shine A Light.flac
  Size: 38010571 Hash: 9D12BC8A7BF5D7D86DD18EA0100EA2E9 Accuracy: -m0
  Conclusion: CDDA 100%
  Signature: 0B57790F95346B5500D60E9A7868EE3EA5B2A67B
FILE: 08 - Beady Eye - Don't Brother Me.flac
  Size: 48781607 Hash: AE73E9D84810ACDD575E5A34FD7C1A5D Accuracy: -m0
  Conclusion: CDDA 100%
  Signature: CD30439DF98F2D2B3D88679F372A723F2BFD4D32
FILE: 07 - Beady Eye - I'm Just Saying.flac
  Size: 29654168 Hash: 705CC408DF2BCA99DFF542D6416ED2D3 Accuracy: -m0
  Conclusion: CDDA 100%
  Signature: 4F6C8EC863B0707906920EF587C6CB33474F6E73
FILE: 06 - Beady Eye - Iz Rite.flac
  Size: 26907504 Hash: 8D3D822D4ACA6FB57737E2F36F0F994B Accuracy: -m0
  Conclusion: CDDA 100%
  Signature: 7DA6159626CC6F122D3BBEA625A3F83AC4E9D092
FILE: 05 - Beady Eye - Soon Come Tomorrow.flac
  Size: 34307419 Hash: 36CE0A517CB630F615DEAD75DB0E51A8 Accuracy: -m0
  Conclusion: CDDA 100%
  Signature: 4C197898C330129C2C00E65C082B5C70897A29B4
FILE: 04 - Beady Eye - Second Bite Of The Apple.flac
  Size: 26503982 Hash: 6611C1356B159219438F7684F493E456 Accuracy: -m0
  Conclusion: CDDA 100%
  Signature: 09BBA5CB5739D10D194E6A0FC8AD4244FBD00539
FILE: 03 - Beady Eye - Face The Crowd.flac
  Size: 31495343 Hash: A458B98E76B4E89D7A7A08015AB12557 Accuracy: -m0
  Conclusion: CDDA 100%
  Signature: A3D49CD2F247E8E32A36C1019C6F9D2627703B95
FILE: 02 - Beady Eye - Soul Love.flac
  Size: 31086927 Hash: 3FD0B667B72C99413EF8B3E4C8A9C664 Accuracy: -m0
  Conclusion: CDDA 100%
  Signature: 875CB254C990182E9F92806CDBF42E12E9FBBE3D
FILE: 01 - Beady Eye - Flick Of The Finger.flac
  Size: 27665542 Hash: 00D11B24FD7DD59D5BD82773A44B944B Accuracy: -m0
  Conclusion: CDDA 100%
  Signature: 12FE5780EDDE24DD4EB549158DBEC8B2A86B3C64
Продолжительность: 01:15:06
flac

Beady Eye (англ. биди ай, буквально с англ. «глаз-бусина») - английская рок-группа. Образована в 2010 бывшими участниками группы Oasis, , прекратившей существование после ухода основного автора песен Noel Gallagher
История группы
В состав Beady Eye вошли Лиам Галлахер, Гем Арчер, Энди Белл и концертный ударник Крис Шэррок, позднее ставший полноценным участником группы. Джеф Вуттон и Мэтт Джонс играют на бас-гитаре и клавишных во время живых выступлений.
В интервью газете The Sunday Times Лиам Галлахер заявил, что его новая группа Beady Eye гораздо лучше, чем Oasis. Он сообщил, что его новый коллектив играет рок-н-ролл, в то время как Oasis всегда оставались поп-группой.
Группа начала создание и запись нового материала в ноябре 2009. Первый сингл, Bring the Light, был выпущен 15 ноября 2010, а перед этим выложен на сайте группы 9 ноября, за первые сутки сингл был скачан более 350 тысяч раз. Сингл занял 61-е место в британском хит-параде синглов и возглавил инди- и рок-чарты.
Второй промо-сингл, Four Letter Word, был выпущен 26 декабря 2010 и стал доступен для прослушивания на NME.com, также группа появилась на обложке рождественского номера New Musical Express. The Roller был анонсирован в качестве первого коммерческого сингла группы и впервые прозвучал в эфире Xfm Radio 7 января 2011.
Дебютный альбом группы, Different Gear, Still Speeding, продюсером которого стал многократный обладатель «Грэмми» Стив Лиллиуайт, сотрудничавший с такими исполнителями, как U2, The Rolling Stones, 30 Seconds To Mars, Crowded House и The Pogues, вышел 28 февраля 2011.
Лиам Галлахер назвал пластинку своей лучшей работой, сравнив с дебютным альбомом Oasis Definitely Maybe.
23 ноября 2010 Beady Eye анонсировали планы выступлений. Группа провела короткий концертный тур по Великобритании и Европе в марте 2011, а также приняла участие на фестивале Isle of Wight в июне, где она сыграла в качестве специального гостя перед выступлением хедлайнеров фестиваля Kasabian.
Beady Eye Records
Beady Eye Records Ltd. — звукозаписывающий лейбл, специально созданный группой для издания своего материала в Великобритании. По идее музыкантов, он служит той же цели, что и Big Brother для Oasis. Дебютный альбом группы Different Gear, Still Speeding вышел именно на Beady Eye Records.
Дискография

Альбомы
Different Gear, Still Speeding (28 февраля 2011)
BE - 2013

Синглы
Bring the Light (22 ноября 2010)
Four Letter Word (26 декабря 2010)
The Roller (24 января 2011)

Band members
Liam Gallagher – vocals, tambourine, guitar (only studio)
Gem Archer – guitars, bass guitar, keyboards, backing vocals
Andy Bell – guitars, bass guitar, keyboards, backing vocals
Chris Sharrock – drums, percussion

Live musicians
Jeff Wootton – bass
Matt Jones – keyboard
Правила, инструкции, FAQ!!!
Торрент  Добавлен [16 мар 2014, 00:37] Скачать торрент Магнет ссылка
Скачать торрент
[ Размер 19.41 КБ / Просмотров 54 ]

Статус  
 
Размер  1.11 ГБ
Приватный: Нет (DHT включён)
.torrent скачан  0
 


     Отправить личное сообщение
   
Страница 1 из 1
Показать сообщения за:  Поле сортировки  
Начать новую тему Ответить на тему


Сейчас этот форум просматривают: нет зарегистрированных пользователей и гости: 0


Вы не можете начинать темы
Вы не можете отвечать на сообщения
Вы не можете редактировать свои сообщения
Вы не можете удалять свои сообщения
Вы не можете добавлять вложения

Перейти:  
cron
cron