Начать новую тему Ответить на тему
Статистика раздачи
Размер: 449.05 МБ | Добавлен: 05 дек 2013, 10:36 | Скачали: 0
Сидеров: 1  [0 байт/сек]    Личеров: 0  [0 байт/сек]
Пред. тема | След. тема 

Автор
Сообщение

СообщениеДобавлено: 05 дек 2013, 10:36 

Ответить с цитатой 

BBK - Age Of Pain (2013)

Жанр: Progressive Rock, Fusion
Страна-производитель диска: Japan
Год издания: 2013
Label: discUnion
Catalog#: ARC-1162
Страна: Japan
Аудиокодек: WavPack (*.wv)
Тип рипа: iso.wv
Битрейт аудио: lossless
Продолжительность: 00:52:23
Спасибо: tatuk
Наличие сканов в содержимом раздачи: да
Треклист:
01. Larks In The Air (6:23)
02. Supicious Forest (8:10)
03. Age Of Pain (6:52)
04. Vertical Divided Alone Man (7:41)
05. Termites Daydream (5:23)
06. Lythrum (4:36)
07. Kernel (6:39)
08. My Restless Heart (6:30)

- Akihisa Tsuboy / violin
- Toshimitsu Takahashi / keyboards
- Dani / bass
- Shirou Sugano / drums

Шесть лет молчания. И вот они снова в деле. Четверка грозных флибустьеров японского происхождения. Опытные лоцманы музыкальных течений, поднаторевшие в искусстве прокладывания необычных сонических маршрутов. Во главе, как водится, струнный волшебник Акихиса Цубой (скрипка). Аккомпанирующий состав - давно знакомые почитателю ориентального фьюжн-прога клавишник Тосимицу Такахаси, басист Дани и ударник Ширу Сугано. Гитары - побоку, вокал туда же. Когда под рукою инструмент, прославленный в веках, можно смело браться за переписывание истории. Этим они и занимаются, добавляя свежие краски в устоявшийся мир рока, запуская в оборот нешаблонные звуковые сочетания, изобретая яркие формулы и стильные игровые комбинации.
Пятая по счету пластинка KBB полностью лишена азиатских влияний. Собственно, для прогрессива Страны Восходящего Солнца подобное отношение к творчеству стало приоритетным. Тотальное отсутствие национальных мотивов, воспоминаний о славных самурайских традициях... За ориентир берется Европа с ее историческими деталями. И тут уж решительно невозможно понять, кто же сейчас перед нами: смуглые представители тихоокеанского региона или безбашенный "старосветский" ансамбль, проштудировавший от сих до сих каноны северного фольклора вкупе с джазовыми стандартами.
Вступление "Larks in the air" - чистой воды хамелеонство. Каким дьявольским артистическим талантом надобно обладать, чтобы без лишних ухищрений переродиться из рафинированного токийского интеллектуала в седоусого валийского выпивоху! В этой прогрессивной джиге консерваторски подкованный маэстро Акихиса с первых же тактов демонстрирует исключительное владение техникой фиддла. Удивительное проникновение в суть народной эстетики Британских островов, преподнесенной в контексте оригинального авторского сочинения. Фьюжн-амальгама "Suspicious Forest" - вещица иного сорта. Здесь также прослеживаются ниточки фольклорных взаимосвязей, однако направление мысли пролегает в исключительно модернистской плоскости, с присущими жанру виртуозностью, напором и элементами техноидной агрессии. Стихийные колебания титульной пьесы не выходят за рамки изысканного симфо-рока с незначительной джазовой дозировкой; красиво, отточенно, элегантно. А дальше - ядреный эксперимент "Vertical Divided Alone Man", предназначенный любителям "чего-нибудь позабористее". Цубой врубает фузз и начинает наяривать так, что многим "гитарным героям" остается лишь нервно курить в углу. После яростной порции адреналина наступает черед "сельской дискотеки" под названием "Termites Daydream": разухабистая деревенская плясовая ближе к середине трека разгоняется до фантастической скорости, и затем лидера незаметно сменяет органист Такахаси, насыщающий пространство комсомольски задорными синти-пассажами. В канве этюда "Lythrum" находится повод для лирической рефлексии. Зато следом нас ожидает свежая головоломная серия "Ну, погоди!" в виде опуса "Kernel". Завершением служит комплексный симфо-фьюжн "My Restless Heart", пестрящий разномастными эмоционально-спектральными пятнами.
Резюмирую: крепко сколоченная прогрессивная мозаика с претензией на умеренный мелодизм, поданная в манере саунд-аттракциона. Рекомендуется для общего развития.

Автор: Sergei Uvaroff


Что такое релиз формата iso.wv
==============================

Формат данного релиза - .iso.wv - новое прогрессивное поколение не требующих
перепаковки беспотерьных музыкальных релизов. Основным его преимуществом является то, что Вы сможете:

- Прослушивать его, используя обычный cue-треклист
- Записывать его в виде аудиодиска
- Хранить его как архив на разных носителях (например, DVD)
- Раздавать его в p2p сетях

и всё, перечисленное выше - относится к одному и тому же файлу, никак не изменяемому с момента выкачки, причем распаковка не нужна!

Краткое описание возможностей
=============================

Прослушивание

Любая программа-плейер с поддержкой проигрывания треков на основе cue и беспотерьных кодеков (например, foobar2000) распознает данный релиз как файл беспотерьной музыки со встроенным cue. Тэг log также содержит log-файл программы EAC, подтверждающий качество граба. Приятного прослушивания!

Запись на аудио-CD

Откройте данный релиз как обычный образ ISO на виртуальном CD-приводе - и выувидите, что его содержимое вполне обычно - музыкальный файл, cue-файл, log-файл, обложки (как правило)... - все то, что вы привыкли видеть в стандартных релизах. Да, вы сможете слушать музыку со "вставленного" в виртуальный привод образа iso с помощью внешнего cue вместо встроенного (аналогично тому, как это описано выше). Но основное преимущество - то, что вы можете записать аудио-CD, не распаковывая релиз. Просто переименуйте файл .iso.wv в .iso и настройте в привычной вам программе-писателе дисков (скажем, Nero) непосредственную поддержку беспотерьных аудиокодеков (как правило, с помощью плагинов).
Самый удобный способ - использовать Burrrn - он бесплатен, прекрасно поддерживает все популярные аудиокодеки и не вызывает проблем при использовании cue файлов, содержащих не-ANSI (UTF-8) символы. Удачной записи!

Хранение в домашнем архиве

Релизер приложил все усилия, чтобы вам не пришлось производить никаких дополнительных действий со скачанным релизом. Он полностью подходит для любых задач, для которых используются обычные музыкальные релизы. Храните его в том же виде, в котором станете слушать с архивных носителей. Наслаждайтесь много-
целевыми ахивно-музыкальными дисками!

Раздачи в p2p-сетях

По причинам, указанным выше, данный релиз остается неизменным, так что вы можете поддерживать p2p-раздачи, используя тот же файл, который слушаете. Это вдвое уменьшает место, необходимое для хранения музыки на винчестере!

Примечание: единственное обязательное условие для точного совпадения файла с исходной раздачей в p2p-сетях -сохранение в неприкосновенности встроенных тэгов. Если по каким-либо причинам вам понадобится, скажем, исправить cue - извлеките встроенную версию в отдельный файл и правьте его там. Для предотвра-
щения нежелательных перемен в файле релиза может быть полезным пометить его атрибутом "read-only".

- - - - - - - - - - - -

И последнее (но не менее важное). Технология "неизменных" релизов iso.wv разработана для удобства "ленивого" большинства пользователей, не желающих тратить время на перекодировку, переименование и перепаковку скачанных релизов.
Если ваши личные предпочтения в отношении музыкальных файлов вашей коллекции отличаются от общепринятых, то продолжайте придерживаться своих собственныхстандартов - любой файл из релиза формата iso.wv может быть распакован с помощью WinRar (для такой распаковки понадобится переименовать файл .iso.wv в .iso) или скопирован из виртуального образа.

Код:
Код:
Exact Audio Copy V1.0 beta 3 from 29. August 2011

EAC extraction logfile from 5. September 2013, 17:45

KBB / Age Of Pain

Used drive  : PIONEER DVD-RW DVR-220RS   Adapter: 0  ID: 0

Read mode               : Secure
Utilize accurate stream : Yes
Defeat audio cache      : Yes
Make use of C2 pointers : No

Read offset correction                      : 6
Overread into Lead-In and Lead-Out          : No
Fill up missing offset samples with silence : Yes
Delete leading and trailing silent blocks   : No
Null samples used in CRC calculations       : Yes
Used interface                              : Native Win32 interface for Win NT & 2000

Used output format              : User Defined Encoder
Selected bitrate                : 128 kBit/s
Quality                         : High
Add ID3 tag                     : No
Command line compressor         : C:\Program Files (x86)\Exact Audio Copy\Wavpack\wavpack.exe
Additional command line options : -hlm %source% %dest%

TOC of the extracted CD

     Track |   Start  |  Length  | Start sector | End sector
    ---------------------------------------------------------
        1  |  0:00.00 |  6:22.40 |         0    |    28689
        2  |  6:22.40 |  8:10.15 |     28690    |    65454
        3  | 14:32.55 |  6:52.35 |     65455    |    96389
        4  | 21:25.15 |  7:41.14 |     96390    |   130978
        5  | 29:06.29 |  5:22.43 |    130979    |   155171
        6  | 34:28.72 |  4:36.27 |    155172    |   175898
        7  | 39:05.24 |  6:38.45 |    175899    |   205793
        8  | 45:43.69 |  6:30.03 |    205794    |   235046

Range status and errors

Selected range

     Filename C:\NL+ byTATUK\CD25\KBB - Age Of Pain.wav

     Peak level 96.6 %
     Extraction speed 7.2 X
     Range quality 100.0 %
     Test CRC 02786CE1
     Copy CRC 02786CE1
     Copy OK

No errors occurred

AccurateRip summary

Track  1  not present in database
Track  2  not present in database
Track  3  not present in database
Track  4  not present in database
Track  5  not present in database
Track  6  not present in database
Track  7  not present in database
Track  8  not present in database

None of the tracks are present in the AccurateRip database

End of status report

---- CUETools DB Plugin V2.1.3

[CTDB TOCID: njELCYvGiiwzfaYNtKqSh7NSOVo-] disk not present in database, Submit result: njELCYvGiiwzfaYNtKqSh7NSOVo- has been uploaded

==== Log checksum C9F6833D60137A16D7D929CB57A3670EB2821C7330F475554C6B64AC39E39E82 ====
Код:
Код:
-----------------------

DON'T MODIFY THIS FILE

-----------------------

PERFORMER: auCDtect Task Manager, ver. 1.6.0 RC1 build 1.6.0.1
Copyright (c) 2008-2010 y-soft. All rights reserved
http:/y-soft.org

ANALYZER: auCDtect: CD records authenticity detector, version 0.8.2
Copyright (c) 2004 Oleg Berngardt. All rights reserved.
Copyright (c) 2004 Alexander Djourik. All rights reserved.

FILE: KBB - Age Of Pain.wv
  Size: 360616224 Hash: 7D5A42C2E7F7F42CF221A11269E271E9 Accuracy: -m0
  Conclusion: CDDA 100%
  Signature: 5D7BDB3017733E1C5CDB6ADAE4FD1FEB4C6B42D7
Код:
Код:
REM GENRE "Progressive Rock"
REM DATE 2013
REM DISCID 750C3D08
REM COMMENT "ExactAudioCopy v1.0b3"
PERFORMER "KBB"
TITLE "Age Of Pain"
FILE "KBB - Age Of Pain 2013.wv" WAVE
  TRACK 01 AUDIO
    TITLE "Larks In The Air"
    PERFORMER "KBB"
    INDEX 01 00:00:00
  TRACK 02 AUDIO
    TITLE "Supicious Forest"
    PERFORMER "KBB"
    INDEX 00 06:20:40
    INDEX 01 06:22:40
  TRACK 03 AUDIO
    TITLE "Age Of Pain"
    PERFORMER "KBB"
    INDEX 00 14:30:19
    INDEX 01 14:32:55
  TRACK 04 AUDIO
    TITLE "Vertical Divided Alone Man"
    PERFORMER "KBB"
    INDEX 00 21:22:15
    INDEX 01 21:25:15
  TRACK 05 AUDIO
    TITLE "Termites Daydream"
    PERFORMER "KBB"
    INDEX 00 29:03:29
    INDEX 01 29:06:29
  TRACK 06 AUDIO
    TITLE "Lythrum"
    PERFORMER "KBB"
    INDEX 00 34:26:51
    INDEX 01 34:28:72
  TRACK 07 AUDIO
    TITLE "Kernel"
    PERFORMER "KBB"
    INDEX 00 39:03:63
    INDEX 01 39:05:24
  TRACK 08 AUDIO
    TITLE "My Restless Heart"
    PERFORMER "KBB"
    INDEX 00 45:42:18
    INDEX 01 45:43:69

KBB - Age Of Pain 2013.log
KBB - Age Of Pain 2013.wv
KBB - Age Of Pain 2013.wv.cue
cd.jpg
back.jpg
front.jpg
discUNION ARC-1162.sig
checkers\KBB - Age Of Pain 2013.accurip
checkers\KBB - Age Of Pain.wv.auCDtect.txt
checkers\matrix.jpg
checkers\spectrum.jpg
checkers\wave.jpg
checkers\EAC.jpg
misc\info.txt
readme\[RUS] README No unpacking needed to play or burn this release.txt
readme\[ENG] README No unpacking needed to play or burn this release.txt
scans\front.png
scans\inside.png
scans\obi.png
scans\cd.png
Правила, инструкции, FAQ!!!
Торрент  Добавлен [05 дек 2013, 10:36] Скачать торрент Магнет ссылка
Скачать торрент
[ Размер 18.28 КБ / Просмотров 11 ]

Статус  
 
Размер  449.05 МБ
Приватный: Нет (DHT включён)
.torrent скачан  0
 


     Отправить личное сообщение
   
Страница 1 из 1
Показать сообщения за:  Поле сортировки  
Начать новую тему Ответить на тему


Сейчас этот форум просматривают: нет зарегистрированных пользователей и гости: 0


Вы не можете начинать темы
Вы не можете отвечать на сообщения
Вы не можете редактировать свои сообщения
Вы не можете удалять свои сообщения
Вы не можете добавлять вложения

Перейти:  
cron