Начать новую тему Ответить на тему
Статистика раздачи
Размер: 711.43 МБ | Добавлен: 16 мар 2014, 00:19 | Скачали: 6
Сидеров: 1  [0 байт/сек]    Личеров: 1  [0 байт/сек]
Пред. тема | След. тема 

Автор
Сообщение

СообщениеДобавлено: 16 мар 2014, 00:19 

Ответить с цитатой 

Bajm - The Very Best Of (1992) / The Very Best Of Vol. II (1993)

Год: 1992 / 1993
Жанр: Rock, East Rock, Pop-Rock, Ballad
Лейбл: Inter Sonus
Номер по каталогу: IS 040 / IS 045
Страна: Польша
Продолжительность: 01:51:02
Тип рипа: tracks+.cue
Кодек: FLAC
Битрейт: Lossless
Наличие сканов в содержимом раздачи: есть (jpg, 1.57 Mb)
Треклист:
Продолжительность: 00:58:29
Треклист:
01. Piechotą do lata (1978) - 2:56
02. W drodze do jej serca (1982) - 5:03
03. Czary mary (1982) - 3:12
04. Różowa kula (1982) - 5:11
05. Nie ma wody na pustyni (1983) - 4:00
06. Małpa i ja (1984) - 5:48
07. Piramidy na niby (1984) - 4:04
08. Płynie w nas gorąca krew (1985) - 4:02
09. Diament i sól (1985) - 4:06
10. Wielka inwazja (1986) - 4:55
11. Nagie skały (1987) - 4:57
12. Miłość nie umiera (1988) - 5:41
13. Biała armia (1989) - 4:34
Продолжительность: 00:52:33
Треклист:
01. Rano (1980) - 2:45
02. Po prostu stało się (1983) - 3:33
03. Co mi Panie dasz (1983) - 3:41
04. Prorocy świata (1983) - 3:36
05. Józek, nie daruję Ci tej nocy (1982) - 5:19
06. Dwa serca, dwa smutki (1985) - 5:03
07. Martwa woda (1984) - 5:46
08. Męski świat (1988) - 4:52
09. Ja (1988) - 4:12
10. Jezioro szczęścia (1987) - 4:14
11. Żywe cienie (1990) - 4:24
12. Miłość i ja (1990) - 5:08
Credits:
The Very Best Of:
Music by Jarosław Kozidrak (1-6, 8, 10), Beata Kozidrak (7, 13), Andrzej Pietras (9, 11, 12), Paweł Sot (13)
Lyrics by Beata Kozidrak

The Very Best Of Vol. II:
Music by Jarosław Kozidrak (1, 2, 4-7), Beata Kozidrak (3), Konstanty Joriadis (8), Andrzej Pietras (9), Franz Dreadhunter (10), Paweł Sot (11, 12)
Lyrics by Beata Kozidrak (2-12), Jacek Giszczak (1)

О группе Bajm:
Bajm - польский поп-рок коллектив, был основан в Люблине в 1978 году. Состав несколько раз менялся, но несмотря на это есть один человек от самого начала, это как раз вокалистка и одна из основателей группы - Беата Козидрак (Beata Kozidrak). Название группы идет от первых букв имени основателей группы: Beaty Kozidrak (Беата Козидрак), Andrzeja Pietrasa (Анджея Петраса), Jarosława Kozidraka (Ярослава Козидрака) и Marka Winiarskiego (Марка Винарскего).

Группа начала набирать популярность после выступления на «Национальном Фестивале Польских Песен» (Krajowym Festiwalu Piosenki Polskiej) который проходил в Ополе (Opole) в том же 1978 году, где благодаря песне «Piechotą do lata» (Идите к лету) заняли второе место на своем дебютном концерте.

Текущий состав группы:
Beata Kozidrak (Беата Козидрак) - вокалистка
Adam Drath (Адам Драт) - гитара, играет в группе ~ c 1995 года, так же пишет музыку и тексты
Piotr Bielecki (Петр Белецки) - гитара, играет в группе с 1993 года, автор таких текстов как «Szklanka wody», «Łąki pełne snów».
Maria Dobrzańska (Мария Добжанска) - клавишница, играет в группе с 2000 года, автор песен «Wiosna w Paryżu» и»Jak dziecko», так же со-композитор песни «Krótka historia»
Artur Daniewski (Артур Даневский) - бас гитарист, играет с 1993го.
Krzysztof Nieścior (Кжиштоф Ниечор) - барабанщик, играет с 1993го.

Дискография:
1978 - Piechotą do lata / Wycinanki (Single) - только на виниле
1980 - Wędrujemy / Rano, kiedy budzę się rano (Single) - только на виниле
1982 - W drodze do jej serca / Czary mary (Single) - только на виниле
1983 - Bajm
1984 - Ściany mają uszy, uszy znakomite / Diabelski krąg (Single) - только на виниле
1984 - Martwa woda
1986 - Chroń mnie
1988 - Nagie skały
1990 - Biała armia
1992 - The Best I (Compilation / Best Of)
1993 - Płomień z nieba
1993 - The Best II (Compilation / Best Of)
1995 - Etna
1997 - Ballady
2000 - Lola, Lola (Single)
2000 - Szklanka wody
2002 - Lublin - Grodzka 36a (Single)
2002 - Ja (Single)
2003 - Martwa woda (Переиздание второго альбома)
2003 - Noc po ciężkim dniu (Single)
2003 - Być z Tobą (Single)
2003 - Myśli i słowa (Single)
2003 - Myśli i słowa
2004 - Wiosna w Paryżu (Single)
2005 - Ameryka (Single)
2008 - Ballady 2
2008 - Ballady 1+2
2012 - Blondynka

Помимо этого вокалистка выпустила еще 2 сольных альбома под своим именем Beata.
1998 - Beata
2005 - Teraz płynę
2006 - Beata Platynowa - два соло альбома Beaty Kozidrak + специальный DVD диск с бонусами
Код:
Код:
Exact Audio Copy V0.99 prebeta 5 from 4. May 2009

EAC extraction logfile from 1. April 2010, 19:26

Bajm / The Very Best Of

Used drive  : LITEON  CD-ROM LTN526   Adapter: 1  ID: 1

Read mode               : Secure
Utilize accurate stream : Yes
Defeat audio cache      : Yes
Make use of C2 pointers : No

Read offset correction                      : 600
Overread into Lead-In and Lead-Out          : No
Fill up missing offset samples with silence : Yes
Delete leading and trailing silent blocks   : No
Null samples used in CRC calculations       : Yes
Used interface                              : Installed external ASPI interface
Gap handling                                : Appended to previous track

Used output format              : User Defined Encoder
Selected bitrate                : 1024 kBit/s
Quality                         : High
Add ID3 tag                     : Yes
Command line compressor         : C:\Program Files\Exact Audio Copy\Flac\flac.exe
Additional command line options : -8 -T "artist=%a" -T "title=%t" -T "album=%g" -T "date=%y" -T "tracknumber=%n" -T "genre=%m" %s

TOC of the extracted CD

     Track |   Start  |  Length  | Start sector | End sector
    ---------------------------------------------------------
        1  |  0:00.32 |  2:56.28 |        32    |    13259
        2  |  2:56.60 |  5:03.37 |     13260    |    36021
        3  |  8:00.22 |  3:11.53 |     36022    |    50399
        4  | 11:12.00 |  5:11.07 |     50400    |    73731
        5  | 16:23.07 |  3:59.70 |     73732    |    91726
        6  | 20:23.02 |  5:47.60 |     91727    |   117811
        7  | 26:10.62 |  4:04.08 |    117812    |   136119
        8  | 30:14.70 |  4:02.02 |    136120    |   154271
        9  | 34:16.72 |  4:06.30 |    154272    |   172751
       10  | 38:23.27 |  4:55.05 |    172752    |   194881
       11  | 43:18.32 |  4:57.03 |    194882    |   217159
       12  | 48:15.35 |  5:41.30 |    217160    |   242764
       13  | 53:56.65 |  4:33.55 |    242765    |   263294

Track  1

     Filename E:\Z Audio\EAC\Bajm - The Very Best Of\01 - Piechot№ do lata.wav

     Pre-gap length  0:00:02.42

     Peak level 98.1 %
     Track quality 100.0 %
     Test CRC AF99FCE1
     Copy CRC AF99FCE1
     Cannot be verified as accurate (confidence 2)  [CE59CFE2], AccurateRip returned [76507EB9]
     Copy OK

Track  2

     Filename E:\Z Audio\EAC\Bajm - The Very Best Of\02 - W drodze do jej serca.wav

     Pre-gap length  0:00:03.30

     Peak level 100.0 %
     Track quality 99.9 %
     Test CRC 5C1C321F
     Copy CRC 5C1C321F
     Cannot be verified as accurate (confidence 2)  [E486A680], AccurateRip returned [8A7EE9D6]
     Copy OK

Track  3

     Filename E:\Z Audio\EAC\Bajm - The Very Best Of\03 - Czary mary.wav

     Pre-gap length  0:00:06.73

     Peak level 100.0 %
     Track quality 99.7 %
     Test CRC DB27C65D
     Copy CRC DB27C65D
     Cannot be verified as accurate (confidence 2)  [50434A90], AccurateRip returned [2501998A]
     Copy OK

Track  4

     Filename E:\Z Audio\EAC\Bajm - The Very Best Of\04 - Rуїowa kula.wav

     Pre-gap length  0:00:04.90

     Peak level 100.0 %
     Track quality 100.0 %
     Test CRC 97E22E73
     Copy CRC 97E22E73
     Cannot be verified as accurate (confidence 2)  [EAA520AC], AccurateRip returned [98CBA4AF]
     Copy OK

Track  5

     Filename E:\Z Audio\EAC\Bajm - The Very Best Of\05 - Nie ma wody na pustyni.wav

     Pre-gap length  0:00:03.42

     Peak level 100.0 %
     Track quality 100.0 %
     Test CRC D40FE36F
     Copy CRC D40FE36F
     Track not present in AccurateRip database
     Copy OK

Track  6

     Filename E:\Z Audio\EAC\Bajm - The Very Best Of\06 - Maіpa i ja.wav

     Pre-gap length  0:00:05.56

     Peak level 100.0 %
     Track quality 100.0 %
     Test CRC 3A23991C
     Copy CRC 3A23991C
     Track not present in AccurateRip database
     Copy OK

Track  7

     Filename E:\Z Audio\EAC\Bajm - The Very Best Of\07 - Piramidy na niby.wav

     Pre-gap length  0:00:04.46

     Peak level 91.4 %
     Track quality 100.0 %
     Test CRC 03E4AC65
     Copy CRC 03E4AC65
     Cannot be verified as accurate (confidence 2)  [C798237D], AccurateRip returned [561BD40C]
     Copy OK

Track  8

     Filename E:\Z Audio\EAC\Bajm - The Very Best Of\08 - Pіynie w nas gor№ca krew.wav

     Pre-gap length  0:00:03.60

     Peak level 94.0 %
     Track quality 100.0 %
     Test CRC 966B7ABF
     Copy CRC 966B7ABF
     Track not present in AccurateRip database
     Copy OK

Track  9

     Filename E:\Z Audio\EAC\Bajm - The Very Best Of\09 - Diament i sуl.wav

     Pre-gap length  0:00:04.49

     Peak level 100.0 %
     Track quality 99.9 %
     Test CRC E9852C98
     Copy CRC E9852C98
     Track not present in AccurateRip database
     Copy OK

Track 10

     Filename E:\Z Audio\EAC\Bajm - The Very Best Of\10 - Wielka inwazja.wav

     Pre-gap length  0:00:02.93

     Peak level 100.0 %
     Track quality 99.8 %
     Test CRC 22F10851
     Copy CRC 22F10851
     Track not present in AccurateRip database
     Copy OK

Track 11

     Filename E:\Z Audio\EAC\Bajm - The Very Best Of\11 - Nagie skaіy.wav

     Pre-gap length  0:00:04.56

     Peak level 100.0 %
     Track quality 99.9 %
     Test CRC 6D767FFD
     Copy CRC 6D767FFD
     Track not present in AccurateRip database
     Copy OK

Track 12

     Filename E:\Z Audio\EAC\Bajm - The Very Best Of\12 - Miіoњж nie umiera.wav

     Pre-gap length  0:00:05.77

     Peak level 100.0 %
     Track quality 100.0 %
     Test CRC 17B8B678
     Copy CRC 17B8B678
     Track not present in AccurateRip database
     Copy OK

Track 13

     Filename E:\Z Audio\EAC\Bajm - The Very Best Of\13 - Biaіa armia.wav

     Pre-gap length  0:00:05.44

     Peak level 96.6 %
     Track quality 100.0 %
     Test CRC 855BB367
     Copy CRC 855BB367
     Track not present in AccurateRip database
     Copy OK

 5 track(s) could not be verified as accurate
 8 track(s) not present in the AccurateRip database

No tracks could be verified as accurate
You may have a different pressing from the one(s) in the database

No errors occurred

End of status report
Код:
Код:
Exact Audio Copy V0.99 prebeta 5 from 4. May 2009

EAC extraction logfile from 1. April 2010, 21:11

Bajm / The Very Best Of vol. II

Used drive  : LITEON  CD-ROM LTN526   Adapter: 1  ID: 1

Read mode               : Secure
Utilize accurate stream : Yes
Defeat audio cache      : Yes
Make use of C2 pointers : No

Read offset correction                      : 600
Overread into Lead-In and Lead-Out          : No
Fill up missing offset samples with silence : Yes
Delete leading and trailing silent blocks   : No
Null samples used in CRC calculations       : Yes
Used interface                              : Installed external ASPI interface
Gap handling                                : Appended to previous track

Used output format              : User Defined Encoder
Selected bitrate                : 1024 kBit/s
Quality                         : High
Add ID3 tag                     : Yes
Command line compressor         : C:\Program Files\Exact Audio Copy\Flac\flac.exe
Additional command line options : -8 -T "artist=%a" -T "title=%t" -T "album=%g" -T "date=%y" -T "tracknumber=%n" -T "genre=%m" %s

TOC of the extracted CD

     Track |   Start  |  Length  | Start sector | End sector
    ---------------------------------------------------------
        1  |  0:00.33 |  2:45.10 |        33    |    12417
        2  |  2:45.43 |  3:33.22 |     12418    |    28414
        3  |  6:18.65 |  3:40.60 |     28415    |    44974
        4  |  9:59.50 |  3:35.65 |     44975    |    61164
        5  | 13:35.40 |  5:18.55 |     61165    |    85069
        6  | 18:54.20 |  5:03.13 |     85070    |   107807
        7  | 23:57.33 |  5:46.20 |    107808    |   133777
        8  | 29:43.53 |  4:51.72 |    133778    |   155674
        9  | 34:35.50 |  4:12.18 |    155675    |   174592
       10  | 38:47.68 |  4:13.50 |    174593    |   193617
       11  | 43:01.43 |  4:23.45 |    193618    |   213387
       12  | 47:25.13 |  5:08.37 |    213388    |   236524

Track  1

     Filename E:\Z Audio\EAC\Bajm - The Very Best Of vol. II\01 - Rano.wav

     Pre-gap length  0:00:02.44

     Peak level 91.5 %
     Track quality 100.0 %
     Test CRC 77837134
     Copy CRC 77837134
     Cannot be verified as accurate (confidence 2)  [D0C1BE10], AccurateRip returned [098035AC]
     Copy OK

Track  2

     Filename E:\Z Audio\EAC\Bajm - The Very Best Of vol. II\02 - Po prostu staіo siк.wav

     Pre-gap length  0:00:04.66

     Peak level 87.8 %
     Track quality 100.0 %
     Test CRC B8A5411D
     Copy CRC B8A5411D
     Cannot be verified as accurate (confidence 2)  [25850129], AccurateRip returned [4D038091]
     Copy OK

Track  3

     Filename E:\Z Audio\EAC\Bajm - The Very Best Of vol. II\03 - Co mi Panie dasz.wav

     Pre-gap length  0:00:03.82

     Peak level 96.4 %
     Track quality 99.9 %
     Test CRC F63A32DE
     Copy CRC F63A32DE
     Cannot be verified as accurate (confidence 2)  [047BA1B0], AccurateRip returned [3136CE63]
     Copy OK

Track  4

     Filename E:\Z Audio\EAC\Bajm - The Very Best Of vol. II\04 - Prorocy њwiata.wav

     Pre-gap length  0:00:03.42

     Peak level 83.1 %
     Track quality 99.9 %
     Test CRC 9BD8F7EA
     Copy CRC 9BD8F7EA
     Cannot be verified as accurate (confidence 2)  [ECF44B75], AccurateRip returned [19F22147]
     Copy OK

Track  5

     Filename E:\Z Audio\EAC\Bajm - The Very Best Of vol. II\05 - Jуzek, nie darujк Ci tej nocy.wav

     Pre-gap length  0:00:03.69

     Peak level 89.7 %
     Track quality 100.0 %
     Test CRC 71DD45D0
     Copy CRC 71DD45D0
     Cannot be verified as accurate (confidence 2)  [05FF2BD2], AccurateRip returned [D3B4444F]
     Copy OK

Track  6

     Filename E:\Z Audio\EAC\Bajm - The Very Best Of vol. II\06 - Dwa serca, dwa smutki.wav

     Pre-gap length  0:00:04.40

     Peak level 67.4 %
     Track quality 99.9 %
     Test CRC 378F6D2D
     Copy CRC 378F6D2D
     Track not present in AccurateRip database
     Copy OK

Track  7

     Filename E:\Z Audio\EAC\Bajm - The Very Best Of vol. II\07 - Martwa woda.wav

     Pre-gap length  0:00:03.90

     Peak level 67.0 %
     Track quality 100.0 %
     Test CRC 96845916
     Copy CRC 96845916
     Cannot be verified as accurate (confidence 2)  [CEA251AB], AccurateRip returned [022EF743]
     Copy OK

Track  8

     Filename E:\Z Audio\EAC\Bajm - The Very Best Of vol. II\08 - Mкski њwiat.wav

     Pre-gap length  0:00:04.70

     Peak level 76.9 %
     Track quality 100.0 %
     Test CRC 2769C974
     Copy CRC 2769C974
     Cannot be verified as accurate (confidence 2)  [7BF06EC8], AccurateRip returned [8E8F1775]
     Copy OK

Track  9

     Filename E:\Z Audio\EAC\Bajm - The Very Best Of vol. II\09 - Ja.wav

     Pre-gap length  0:00:04.60

     Peak level 87.5 %
     Track quality 99.9 %
     Test CRC 0629A11E
     Copy CRC 0629A11E
     Cannot be verified as accurate (confidence 2)  [312ABE87], AccurateRip returned [5E0E71D1]
     Copy OK

Track 10

     Filename E:\Z Audio\EAC\Bajm - The Very Best Of vol. II\10 - Jezioro szczкњcia.wav

     Pre-gap length  0:00:04.70

     Peak level 68.1 %
     Track quality 99.9 %
     Test CRC B850F8FF
     Copy CRC C44C1275
     Cannot be verified as accurate (confidence 2)  [ED82E0F9], AccurateRip returned [E25522A7]
     Copy OK

Track 11

     Filename E:\Z Audio\EAC\Bajm - The Very Best Of vol. II\11 - Їywe cienie.wav

     Pre-gap length  0:00:04.57

     Peak level 89.4 %
     Track quality 99.9 %
     Test CRC F803CD7A
     Copy CRC F803CD7A
     Track not present in AccurateRip database
     Copy OK

Track 12

     Filename E:\Z Audio\EAC\Bajm - The Very Best Of vol. II\12 - Miіoњж i ja.wav

     Pre-gap length  0:00:04.26

     Peak level 92.2 %
     Track quality 99.9 %
     Test CRC FD42FC37
     Copy CRC FD42FC37
     Cannot be verified as accurate (confidence 1)  [F6F9A91A], AccurateRip returned [D2B4BCA1]
     Copy OK

10 track(s) could not be verified as accurate
 2 track(s) not present in the AccurateRip database

No tracks could be verified as accurate
You may have a different pressing from the one(s) in the database

No errors occurred

End of status report
Код:
Код:
PERFORMER: auCDtect Task Manager, ver. 1.6.0 RC1 build 1.6.0.1
Copyright (c) 2008-2010 y-soft. All rights reserved
http:/y-soft.org

ANALYZER: auCDtect: CD records authenticity detector, version 0.8.2
Copyright (c) 2004 Oleg Berngardt. All rights reserved.
Copyright (c) 2004 Alexander Djourik. All rights reserved.

FILE: 13 - Biala armia.flac
  Size: 34071446 Hash: EB05440E9D85A9A50947B795498CC0FE Accuracy: -m0
  Conclusion: CDDA 100%
  Signature: 5FE9F95D588EAE9EBE23255C2DB2EAA3D1CC5D5D
FILE: 12 - Milosc nie umiera.flac
  Size: 38985440 Hash: 2BB8FC3B125540DDABC35EF17AABCFB1 Accuracy: -m0
  Conclusion: CDDA 100%
  Signature: BBCC5FF8A5662BBAA6459821F451EE69C8CE3A5D
FILE: 11 - Nagie skaly.flac
  Size: 36710782 Hash: 0E067C52D8B3D7CF1C12E7098B1539A6 Accuracy: -m0
  Conclusion: CDDA 100%
  Signature: 3701598860A13BD15A9BFB081666A657191FCD83
FILE: 10 - Wielka inwazja.flac
  Size: 35846457 Hash: 8BFC86B2B1A1F4F199CFB02B815A286B Accuracy: -m0
  Conclusion: CDDA 99%
  Signature: 75A8142030817179C39FC280DE08E824320AF8DB
FILE: 09 - Diament i sol.flac
  Size: 28584142 Hash: 646EEE1EED0C23BC312ECA8B35D4F51A Accuracy: -m0
  Conclusion: CDDA 100%
  Signature: 814100C640574B8AE9D7FC9291924EA425768946
FILE: 08 - Plynie w nas goraca krew.flac
  Size: 28106402 Hash: 29B81A7BC7F3BC5A408ADCA73639C51D Accuracy: -m0
  Conclusion: CDDA 100%
  Signature: EE0CC184FCE67829E527CBC6D66C2CBCD6A79A96
FILE: 07 - Piramidy na niby.flac
  Size: 26543301 Hash: 1BA23C08C9E872E1CC497F32868209FC Accuracy: -m0
  Conclusion: CDDA 100%
  Signature: 8F1E5D6B6606B0851D6A13569F781A607068655A
FILE: 06 - Malpa i ja.flac
  Size: 35797212 Hash: F72A9506E8FB552C404B2E3CC14FE233 Accuracy: -m0
  Conclusion: CDDA 100%
  Signature: CF1E06B169E0828149B050EE6DFA71CD1A8227BE
FILE: 05 - Nie ma wody na pustyni.flac
  Size: 26679468 Hash: 38794767CA485D10801D4BA20EFE1C9E Accuracy: -m0
  Conclusion: CDDA 100%
  Signature: 0797A57B5B061A6E7AA1B723D74DC0DE3A53B844
FILE: 04 - Rozowa kula.flac
  Size: 32315227 Hash: 3F7ADC87F4925867FBBD832B6675C8C1 Accuracy: -m0
  Conclusion: CDDA 100%
  Signature: 99ED6E7CEFAF9117A3B8544A7F4CC882C6ED9D6D
FILE: 03 - Czary mary.flac
  Size: 22408143 Hash: A7286C0016C2744A7B1EBA5E28D374C9 Accuracy: -m0
  Conclusion: CDDA 100%
  Signature: AE68B7AE1B97A7C3BE12A0B34CC7786CBE646333
FILE: 02 - W drodze do jej serca.flac
  Size: 33383449 Hash: 6CB9FA9D3A962A7B40E62A025B4E5A81 Accuracy: -m0
  Conclusion: CDDA 99%
  Signature: 1571F2831333D2E576792F332E28366979F6B2CD
FILE: 01 - Piechota do lata.flac
  Size: 18179063 Hash: D016C9788A3D4A6A206B59E32000ABC4 Accuracy: -m0
  Conclusion: CDDA 100%
  Signature: 4B70B2E1C04DE56EC349C4E75491E3E4AED7F6CA
Код:
Код:
PERFORMER: auCDtect Task Manager, ver. 1.6.0 RC1 build 1.6.0.1
Copyright (c) 2008-2010 y-soft. All rights reserved
http:/y-soft.org

ANALYZER: auCDtect: CD records authenticity detector, version 0.8.2
Copyright (c) 2004 Oleg Berngardt. All rights reserved.
Copyright (c) 2004 Alexander Djourik. All rights reserved.

FILE: 12 - Milosc i ja.flac
  Size: 35711227 Hash: 56BC21586A89BE0403DC30EB3FFDC052 Accuracy: -m0
  Conclusion: MPEG 95%
  Signature: 4416C69A557BE61793C430222762170343A75C2D
FILE: 11 - Zywe cienie.flac
  Size: 30577193 Hash: 731F0C396D64466EC2E6B213358CBCF6 Accuracy: -m0
  Conclusion: CDDA 100%
  Signature: FD44CA06C7526FD2FACB19F6CBF7C34F0B521864
FILE: 10 - Jezioro szczescia.flac
  Size: 22884554 Hash: 20189DC4CE39708A8587BA4BA400632B Accuracy: -m0
  Conclusion: CDDA 100%
  Signature: E82DAFA9C2C5615B17B40FFA50692B929AE17D10
FILE: 09 - Ja.flac
  Size: 27449158 Hash: 26D83765CE0CE53BDE4711BE3F2D37CC Accuracy: -m0
  Conclusion: MPEG 95%
  Signature: 28FC797D00B76CB843290044AEF9DD1EF565EEF4
FILE: 08 - Meski swiat.flac
  Size: 31805320 Hash: A8AB2384C8D77E0EC5AF4225EBC1C521 Accuracy: -m0
  Conclusion: ???
  Signature: 98862375B5B5CBDC7AD4F91CB19FB08FFCEA2216
FILE: 07 - Martwa woda.flac
  Size: 35550006 Hash: 17458CA075EAE5546FEC23B71BD807AA Accuracy: -m0
  Conclusion: CDDA 100%
  Signature: 798688B9FEDF9DFD0B7D7D49C50254FD9F113208
FILE: 06 - Dwa serca, dwa smutki.flac
  Size: 34689757 Hash: 9FC2575FB833D9AF312DF25C04384C05 Accuracy: -m0
  Conclusion: CDDA 100%
  Signature: 4B866D654C697EAEBCBD5E00AD20CD9088AC0DB7
FILE: 05 - Jozek, nie daruje Ci tej nocy.flac
  Size: 37258477 Hash: 92B3FF16021B3FBB9C9498B546FC3211 Accuracy: -m0
  Conclusion: CDDA 100%
  Signature: 5F054601219B2B59DAF1B50FA90EA65865B62513
FILE: 04 - Prorocy swiata.flac
  Size: 23606007 Hash: F831A9FC47D8753F9F324D1E55138EDC Accuracy: -m0
  Conclusion: CDDA 99%
  Signature: F4576A09605D63837E86CECE38CF6AF83CFF7589
FILE: 03 - Co mi Panie dasz.flac
  Size: 25811033 Hash: 7BD384E9EA6F195C8A6609405E8AA5E1 Accuracy: -m0
  Conclusion: CDDA 100%
  Signature: 3D97DA954FDC03AEC14E1AE389D86CF606B081E5
FILE: 02 - Po prostu stalo sie.flac
  Size: 22732804 Hash: 38BE72DBF91060B6FFB5AF6D046ADB7F Accuracy: -m0
  Conclusion: CDDA 99%
  Signature: E698EEBB52AE0B3AFC501BBC9539D20DF0273978
FILE: 01 - Rano.flac
  Size: 18169357 Hash: 0DB328FB9600049C9952EC983760071F Accuracy: -m0
  Conclusion: CDDA 100%
  Signature: E326FAF87268870E3FB41F92FE0470A2B0F9105A
Правила, инструкции, FAQ!!!
Торрент  Добавлен [16 мар 2014, 00:19] Скачать торрент Магнет ссылка
Скачать торрент
[ Размер 18.19 КБ / Просмотров 49 ]

Статус  
 
Размер  711.43 МБ
Приватный: Нет (DHT включён)
.torrent скачан  6
 


     Отправить личное сообщение
   
Страница 1 из 1
Показать сообщения за:  Поле сортировки  
Начать новую тему Ответить на тему


Сейчас этот форум просматривают: нет зарегистрированных пользователей и гости: 0


Вы не можете начинать темы
Вы не можете отвечать на сообщения
Вы не можете редактировать свои сообщения
Вы не можете удалять свои сообщения
Вы не можете добавлять вложения

Перейти:  
cron