Начать новую тему Ответить на тему
Статистика раздачи
Размер: 422.88 МБ | Добавлен: 16 мар 2014, 00:02 | Скачали: 1
Сидеров: 0  [0 байт/сек]    Личеров: 0  [0 байт/сек]
Пред. тема | След. тема 

Автор
Сообщение

СообщениеДобавлено: 16 мар 2014, 00:02 

Ответить с цитатой 

Bad Company - Holy Water (1990)

Год: 1990
Издание: ATCO(Atlantic)
Каталог№: 7 91371-2
Жанр: Classic Rock
Источник(Релизёр) : виктор юрьевич
Сканы: Есть
Продолжительность: 00:53:44

Кодек: FLAC
Тип рипа: Image+.cue
Метод сжатия: Lossless
DR14
Треклист:
01. Holy Water (4:08)
02. Walk Through Fire (4:49)
03. Stranger stranger (4:52)
04. If You Needed Somebody (4:21)
05. Fearless (3:33)
06. Lay Your Love On Me (4:05)
07. Boys Cry Tough (5:35)
08. With you in a heartbeat (4:35)
09. I Don't Care (4:34)
10. Never Too Late (3:42)
11. Dead Of The Night (3:42)
12. I Can't Live Without You (3:51)
13. 100 Miles (1:57)

Mick Ralphs: Guitar
Simon Kirke: Drums
Brian Howe: Vocals
Код:
Код:
REM GENRE Blues
REM DATE 1990
REM DISCID AB0C980D
REM COMMENT "ExactAudioCopy v0.99pb5"
PERFORMER "Bad Company"
TITLE "Holy Water"
FILE "Bad Company - Holy Water.flac" WAVE
  TRACK 01 AUDIO
    TITLE "Holy Water"
    PERFORMER "Bad Company"
    INDEX 00 00:00:00
    INDEX 01 00:00:33
  TRACK 02 AUDIO
    TITLE "Walk Through Fire"
    PERFORMER "Bad Company"
    INDEX 00 04:06:50
    INDEX 01 04:08:00
  TRACK 03 AUDIO
    TITLE "Stranger stranger"
    PERFORMER "Bad Company"
    INDEX 00 08:56:43
    INDEX 01 08:56:70
  TRACK 04 AUDIO
    TITLE "If You Needed Somebody"
    PERFORMER "Bad Company"
    INDEX 00 13:48:23
    INDEX 01 13:49:05
  TRACK 05 AUDIO
    TITLE "Fearless"
    PERFORMER "Bad Company"
    INDEX 00 18:10:05
    INDEX 01 18:10:33
  TRACK 06 AUDIO
    TITLE "Lay Your Love On Me"
    PERFORMER "Bad Company"
    INDEX 00 21:43:03
    INDEX 01 21:43:45
  TRACK 07 AUDIO
    TITLE "Boys Cry Tough"
    PERFORMER "Bad Company"
    INDEX 00 25:48:15
    INDEX 01 25:48:53
  TRACK 08 AUDIO
    TITLE "With you in a heartbeat"
    PERFORMER "Bad Company"
    INDEX 00 31:23:20
    INDEX 01 31:24:00
  TRACK 09 AUDIO
    TITLE "I Don't Care"
    PERFORMER "Bad Company"
    INDEX 01 35:58:43
  TRACK 10 AUDIO
    TITLE "Never Too Late"
    PERFORMER "Bad Company"
    INDEX 00 40:32:00
    INDEX 01 40:32:40
  TRACK 11 AUDIO
    TITLE "Dead Of The Night"
    PERFORMER "Bad Company"
    INDEX 01 44:14:38
  TRACK 12 AUDIO
    TITLE "I Can't Live Without You"
    PERFORMER "Bad Company"
    INDEX 00 47:55:00
    INDEX 01 47:56:03
  TRACK 13 AUDIO
    TITLE "100 Miles"
    PERFORMER "Bad Company"
    INDEX 00 51:46:13
    INDEX 01 51:47:05

Код:
Код:
Exact Audio Copy V0.99 prebeta 5 from 4. May 2009

Отчёт EAC об извлечении, выполненном 12. мая 2010, 1:43

Bad Company / Holy Water

Дисковод: Optiarc DVD RW AD-7200S   Adapter: 2  ID: 0

Режим чтения                 : Достоверность
Использование точного потока : Да
Отключение кэша аудио        : Да
Использование указателей C2  : Нет

Коррекция смещения при чтении                     : 48
Способность читать области Lead-in и Lead-out     : Нет
Заполнение пропущенных сэмплов тишиной            : Да
Удаление блоков с тишиной в начале и конце        : Нет
При вычислениях CRC использовались нулевые сэмплы : Да
Интерфейс                                         : Установленный внешний ASPI-интерфейс

Выходной формат : Внутренние WAV-операции
Формат сэмплов  : 44.100 Гц; 16 бит; стерео

TOC извлечённого CD

     Трек |   Старт  | Длительность | Начальный сектор | Конечный сектор
    ---------------------------------------------------------------------
       1  |  0:00.33 |    4:07.42   |          33      |      18599
       2  |  4:08.00 |    4:48.70   |       18600      |      40269
       3  |  8:56.70 |    4:52.10   |       40270      |      62179
       4  | 13:49.05 |    4:21.28   |       62180      |      81782
       5  | 18:10.33 |    3:33.12   |       81783      |      97769
       6  | 21:43.45 |    4:05.08   |       97770      |     116152
       7  | 25:48.53 |    5:35.22   |      116153      |     141299
       8  | 31:24.00 |    4:34.43   |      141300      |     161892
       9  | 35:58.43 |    4:33.72   |      161893      |     182439
      10  | 40:32.40 |    3:41.73   |      182440      |     199087
      11  | 44:14.38 |    3:41.40   |      199088      |     215702
      12  | 47:56.03 |    3:51.02   |      215703      |     233029
      13  | 51:47.05 |    1:57.15   |      233030      |     241819

Характеристики диапазона извлечения и сообщения об ошибках

Выбранный диапазон

     Имя файла E:\МОИ РАЗДАЧИ\Bad Company - Holy Water 1990\Bad Company - Holy Water.wav

     Пиковый уровень 97.7 %
     Качество диапазона 100.0 %
     CRC теста 130190F8
     CRC копии 130190F8
     Копирование... OK

Ошибок не произошло

AccurateRip: сводка

Трек  1  точное извлечение (доверие 9)  [3EF2C98D]
Трек  2  точное извлечение (доверие 9)  [190BEC29]
Трек  3  точное извлечение (доверие 8)  [08C8412B]
Трек  4  точное извлечение (доверие 8)  [162FF868]
Трек  5  точное извлечение (доверие 8)  [BF97F76F]
Трек  6  точное извлечение (доверие 8)  [A5092BEC]
Трек  7  точное извлечение (доверие 8)  [922F2EF0]
Трек  8  точное извлечение (доверие 7)  [682AE8D3]
Трек  9  точное извлечение (доверие 8)  [0E17EAED]
Трек 10  точное извлечение (доверие 8)  [44A2A309]
Трек 11  точное извлечение (доверие 8)  [0C85639B]
Трек 12  точное извлечение (доверие 8)  [2474FC07]
Трек 13  точное извлечение (доверие 8)  [3B3B362C]

Все треки извлечены точно

Конец отчёта

Код:
Код:
-----------------------

DON'T MODIFY THIS FILE

-----------------------

PERFORMER: auCDtect Task Manager, ver. 1.6.0 RC1 build 1.6.0.1
Copyright (c) 2008-2010 y-soft. All rights reserved
http:/y-soft.org

ANALYZER: auCDtect: CD records authenticity detector, version 0.8.2
Copyright (c) 2004 Oleg Berngardt. All rights reserved.
Copyright (c) 2004 Alexander Djourik. All rights reserved.

FILE: Bad Company - Holy Water.flac
  Size: 404014875 Hash: 19BF5AA4484CEF0E3A8AB5BB6964791E Accuracy: -m0
  Conclusion: MPEG 95%
  Signature: AF533D4BA58D7C0311B1093D4F6635908CD9C4AC

Код:
Код:
[CUETools log; Date: 31.01.2014 14:35:03; Version: 2.1.4]
Pregap length 00:00:33.
[CTDB TOCID: .KXsdaLJkTTTEksO7iKxiEpcqvg-] found.
Track | CTDB Status
  1   | (3/3) Accurately ripped
  2   | (3/3) Accurately ripped
  3   | (3/3) Accurately ripped
  4   | (3/3) Accurately ripped
  5   | (3/3) Accurately ripped
  6   | (3/3) Accurately ripped
  7   | (3/3) Accurately ripped
  8   | (3/3) Accurately ripped
  9   | (3/3) Accurately ripped
 10   | (3/3) Accurately ripped
 11   | (3/3) Accurately ripped
 12   | (3/3) Accurately ripped
 13   | (3/3) Accurately ripped
[AccurateRip ID: 001b583f-010feb40-ab0c980d] found.
Track   [  CRC   |   V2   ] Status
 01     [3ef2c98d|918aff3a] (014+005/167) Accurately ripped
 02     [190bec29|24150e15] (014+005/172) Accurately ripped
 03     [08c8412b|89b38ebc] (013+005/165) Accurately ripped
 04     [162ff868|d9e5e984] (013+005/171) Accurately ripped
 05     [bf97f76f|ecfdf800] (013+005/169) Accurately ripped
 06     [a5092bec|f8e9690a] (013+005/165) Accurately ripped
 07     [922f2ef0|cddf3942] (013+005/163) Accurately ripped
 08     [682ae8d3|676c4544] (012+005/162) Accurately ripped
 09     [0e17eaed|fc9df2d4] (013+004/162) Accurately ripped
 10     [44a2a309|c1740f43] (013+005/162) Accurately ripped
 11     [0c85639b|4bd440eb] (013+005/163) Accurately ripped
 12     [2474fc07|fbd380c5] (013+005/160) Accurately ripped
 13     [3b3b362c|6699f2c7] (013+005/163) Accurately ripped
Offsetted by -1847:
 01     [3cc5dbe2] (016/167) Accurately ripped
 02     [f8675c60] (016/172) Accurately ripped
 03     [177fb411] (016/165) Accurately ripped
 04     [e458f990] (016/171) Accurately ripped
 05     [1d6354ef] (016/169) Accurately ripped
 06     [1cad6ead] (016/165) Accurately ripped
 07     [299313ee] (016/163) Accurately ripped
 08     [964aae68] (016/162) Accurately ripped
 09     [cd7dd580] (016/162) Accurately ripped
 10     [68f32059] (016/162) Accurately ripped
 11     [9851ec59] (016/163) Accurately ripped
 12     [83f094d2] (016/160) Accurately ripped
 13     [b5fe06b1] (016/163) Accurately ripped
Offsetted by -1446:
 01     [e34ab15f] (009/167) Accurately ripped
 02     [d4f08bcf] (010/172) Accurately ripped
 03     [a0040527] (009/165) Accurately ripped
 04     [ca05c7f8] (010/171) Accurately ripped
 05     [a5a55e6f] (010/169) Accurately ripped
 06     [56d595f6] (010/165) Accurately ripped
 07     [150ac3dc] (009/163) Accurately ripped
 08     [03c0f125] (010/162) Accurately ripped
 09     [7800082b] (009/162) Accurately ripped
 10     [3c1c08b2] (010/162) Accurately ripped
 11     [209345be] (010/163) Accurately ripped
 12     [38bd1375] (009/160) Accurately ripped
 13     [9184ae02] (010/163) Accurately ripped
Offsetted by -58:
 01     [0463b95b] (026/167) Accurately ripped
 02     [73157263] (027/172) Accurately ripped
 03     [b48ecfef] (024/165) Accurately ripped
 04     [489935d8] (027/171) Accurately ripped
 05     [1af7c06f] (026/169) Accurately ripped
 06     [5c253302] (024/165) Accurately ripped
 07     [c79687c4] (024/163) Accurately ripped
 08     [f6056021] (026/162) Accurately ripped
 09     [2a6b3b0f] (025/162) Accurately ripped
 10     [348f6a43] (022/162) Accurately ripped
 11     [01fcd555] (026/163) Accurately ripped
 12     [001790f9] (024/160) Accurately ripped
 13     [0a18ae00] (024/163) Accurately ripped
Offsetted by 124:
 01     [6cb1e359] (055/167) Accurately ripped
 02     [46e5e7ad] (057/172) Accurately ripped
 03     [52eac953] (055/165) Accurately ripped
 04     [407b1cc8] (058/171) Accurately ripped
 05     [fc3df16f] (056/169) Accurately ripped
 06     [d6f08f88] (054/165) Accurately ripped
 07     [bee84db8] (055/163) Accurately ripped
 08     [cef6bd9f] (052/162) Accurately ripped
 09     [20fbde81] (052/162) Accurately ripped
 10     [67a6a26e] (054/162) Accurately ripped
 11     [bca5323e] (051/163) Accurately ripped
 12     [affee9bb] (052/160) Accurately ripped
 13     [35e2065a] (053/163) Accurately ripped

Track Peak [ CRC32  ] [W/O NULL] [  LOG   ]
 --   97,7 [130190F8] [E112C7D6]   CRC32
 01   97,7 [360D4D4A] [F6E4D912]
 02   97,7 [089735E4] [4C1D71AD]
 03   97,7 [041C0AAB] [FC2F0DCE]
 04   95,5 [3AFAA2AD] [1313A9D4]
 05   96,6 [5DF239AC] [3E14DB74]
 06   97,7 [0746A7F6] [8DB5F1FA]
 07   97,7 [8D2859E8] [51667FF1]
 08   97,7 [AAE44970] [FC7221DA]
 09   95,5 [278DA441] [888FD619]
 10   97,7 [55330AC7] [6BEC6F8F]
 11   97,7 [42C46048] [7E4438D0]
 12   97,7 [3019EF97] [014D5803]
 13   97,7 [53437AD3] [F1D3B573]

Правила, инструкции, FAQ!!!
Торрент  Добавлен [16 мар 2014, 00:02] Скачать торрент Магнет ссылка
Скачать торрент
[ Размер 17.72 КБ / Просмотров 46 ]

Статус  
 
Размер  422.88 МБ
Приватный: Нет (DHT включён)
.torrent скачан  1
 


     Отправить личное сообщение
   
Страница 1 из 1
Показать сообщения за:  Поле сортировки  
Начать новую тему Ответить на тему


Сейчас этот форум просматривают: нет зарегистрированных пользователей и гости: 0


Вы не можете начинать темы
Вы не можете отвечать на сообщения
Вы не можете редактировать свои сообщения
Вы не можете удалять свои сообщения
Вы не можете добавлять вложения

Перейти:  
cron
cron