Начать новую тему Ответить на тему
Статистика раздачи
Размер: 300.71 МБ | Добавлен: 16 мар 2014, 00:02 | Скачали: 3
Сидеров: 1  [0 байт/сек]    Личеров: 15  [0 байт/сек]
Пред. тема | След. тема 

Автор
Сообщение

СообщениеДобавлено: 16 мар 2014, 00:02 

Ответить с цитатой 

Bad Company - Dangerous Age (1988)

Год: 1988
Издание: Atlantic Recording
Каталог№: 7 81884-2
Жанр: Classic Rock
Источник(Релизёр) : рмх222
Сканы: Есть
Продолжительность: 00:45:02

Кодек: FLAC
Тип рипа: Image+.cue
Метод сжатия: Lossless
DR13
Треклист:
01. One Night (4:41)
02. Shake It Up (3:59)
03. No Smoke Without A Fire (4:40)
04. Bad Man (3:49)
05. Dangerous Age (3:50)
06. Dirty Boy (3:52)
07. Rock Of America (3:56)
08. Something About You (4:19)
09. The Way It Goes (3:27)
10. Love Attack (3:56)
11. Excited (4:33)

Mick Ralphs: Guitar
Simon Kirke: Drums
Brian Howe: Vocals
Код:
Код:
REM GENRE Rock
REM DATE 1988
REM DISCID 870A8E0B
REM COMMENT "ExactAudioCopy v0.99pb4"
PERFORMER "Bad Company"
TITLE "Dangerous Age"
FILE "Bad Company - Dangerous Age.flac" WAVE
  TRACK 01 AUDIO
    TITLE "One Night"
    PERFORMER "Bad Company"
    INDEX 00 00:00:00
    INDEX 01 00:00:32
  TRACK 02 AUDIO
    TITLE "Shake It Up"
    PERFORMER "Bad Company"
    INDEX 00 04:41:00
    INDEX 01 04:41:45
  TRACK 03 AUDIO
    TITLE "No Smoke Without A Fire"
    PERFORMER "Bad Company"
    INDEX 00 08:39:67
    INDEX 01 08:40:17
  TRACK 04 AUDIO
    TITLE "Bad Man"
    PERFORMER "Bad Company"
    INDEX 00 13:19:06
    INDEX 01 13:19:55
  TRACK 05 AUDIO
    TITLE "Dangerous Age"
    PERFORMER "Bad Company"
    INDEX 00 17:07:32
    INDEX 01 17:08:70
  TRACK 06 AUDIO
    TITLE "Dirty Boy"
    PERFORMER "Bad Company"
    INDEX 00 20:56:28
    INDEX 01 20:58:70
  TRACK 07 AUDIO
    TITLE "Rock Of America"
    PERFORMER "Bad Company"
    INDEX 00 24:50:60
    INDEX 01 24:51:10
  TRACK 08 AUDIO
    TITLE "Something About You"
    PERFORMER "Bad Company"
    INDEX 00 28:45:20
    INDEX 01 28:47:12
  TRACK 09 AUDIO
    TITLE "The Way It Goes"
    PERFORMER "Bad Company"
    INDEX 00 33:04:64
    INDEX 01 33:06:20
  TRACK 10 AUDIO
    TITLE "Love Attack"
    PERFORMER "Bad Company"
    INDEX 00 36:32:29
    INDEX 01 36:33:37
  TRACK 11 AUDIO
    TITLE "Excited"
    PERFORMER "Bad Company"
    INDEX 00 40:27:57
    INDEX 01 40:29:22

Код:
Код:
Exact Audio Copy V0.99 prebeta 4 from 23. January 2008

Отчёт EAC об извлечении, выполненном 22. ноября 2008, 14:18

Bad Company / Dangerous Age

Дисковод: HL-DT-STRW/DVD GCC-4522B   Adapter: 1  ID: 1

Режим чтения                 : Достоверность
Использование точного потока : Да
Отключение кэша аудио        : Да
Использование указателей C2  : Нет

Коррекция смещения при чтении                     : 6
Способность читать области Lead-in и Lead-out     : Нет
Заполнение пропущенных сэмплов тишиной            : Да
Удаление блоков с тишиной в начале и конце        : Нет
При вычислениях CRC использовались нулевые сэмплы : Да
Интерфейс                                         : Установленный внешний ASPI-интерфейс

Выходной формат          : Пользовательский кодировщик
Выбранный битрейт        : 640 kBit/s
Качество                 : Высокий
Добавление ID3-тэга      : Нет
Утилита сжатия           : C:\Downloads\Программы\flac-1.1.1-win\bin\flac.exe
Дополнительные параметры :  -V -8 -T "artist=%a" -T "title=%t" -T "album=%g" -T "date=%y" -T "tracknumber=%n" -T "genre=%m" %s

TOC извлечённого CD

     Трек |   Старт  | Длительность | Начальный сектор | Конечный сектор
    ---------------------------------------------------------------------
       1  |  0:00.32 |    4:41.13   |          32      |      21119
       2  |  4:41.45 |    3:58.47   |       21120      |      39016
       3  |  8:40.17 |    4:39.38   |       39017      |      59979
       4  | 13:19.55 |    3:49.15   |       59980      |      77169
       5  | 17:08.70 |    3:50.00   |       77170      |      94419
       6  | 20:58.70 |    3:52.15   |       94420      |     111834
       7  | 24:51.10 |    3:56.02   |      111835      |     129536
       8  | 28:47.12 |    4:19.08   |      129537      |     148969
       9  | 33:06.20 |    3:27.17   |      148970      |     164511
      10  | 36:33.37 |    3:55.60   |      164512      |     182196
      11  | 40:29.22 |    4:33.05   |      182197      |     202676

Характеристики диапазона извлечения и сообщения об ошибках

Выбранный диапазон

     Имя файла J:\Новая папка\Bad Company - Dangerous Age.wav

     Пиковый уровень 100.0 %
     Качество диапазона 99.9 %
     CRC теста 8D84873E
     CRC копии 8D84873E
     Копирование... OK

Ошибок не произошло

AccurateRip: сводка

Трек  1  точность не определена (достоверность 3)  [63FF543D], AccurateRip вернул [5245323E]
Трек  2  точность не определена (достоверность 3)  [DDD1F82B], AccurateRip вернул [F7E833E8]
Трек  3  точность не определена (достоверность 3)  [63F141C4], AccurateRip вернул [AEB13866]
Трек  4  точность не определена (достоверность 4)  [73815543], AccurateRip вернул [AE56D24C]
Трек  5  точность не определена (достоверность 3)  [0197BA7D], AccurateRip вернул [A121475B]
Трек  6  точность не определена (достоверность 3)  [1170E4B3], AccurateRip вернул [24FDF2B1]
Трек  7  точность не определена (достоверность 4)  [9E45ADB0], AccurateRip вернул [00F7464B]
Трек  8  точность не определена (достоверность 4)  [7BB2BB64], AccurateRip вернул [692F7B09]
Трек  9  точность не определена (достоверность 2)  [614CCF5F], AccurateRip вернул [20D77941]
Трек 10  точность не определена (достоверность 3)  [C9F226AB], AccurateRip вернул [E1DDAAC3]
Трек 11  точность не определена (достоверность 3)  [9BB0D61E], AccurateRip вернул [617E75CA]

Ни один трек не прошёл проверки на точность
В вашей базе может быть иной вариант штамповки диска

Конец отчёта

Код:
Код:
-----------------------

DON'T MODIFY THIS FILE

-----------------------

PERFORMER: auCDtect Task Manager, ver. 1.6.0 RC1 build 1.6.0.1
Copyright (c) 2008-2010 y-soft. All rights reserved
http:/y-soft.org

ANALYZER: auCDtect: CD records authenticity detector, version 0.8.2
Copyright (c) 2004 Oleg Berngardt. All rights reserved.
Copyright (c) 2004 Alexander Djourik. All rights reserved.

FILE: Bad Company - Dangerous Age.flac
  Size: 307024306 Hash: 75DBFC353F04D8013ED2D3A2F39C4ED0 Accuracy: -m0
  Conclusion: MPEG 95%
  Signature: 3CA59FC6F521243AC771BD05EAC41E1D45671C2C

Код:
Код:
[CUETools log; Date: 30.01.2014 20:27:53; Version: 2.1.4]
Pregap length 00:00:32.
[CTDB TOCID: PfyTLjxL2i2wcZUGP9EPsiPkcZ4-] found.
Track | CTDB Status
  1   | (4/4) Accurately ripped
  2   | (4/4) Accurately ripped
  3   | (4/4) Accurately ripped
  4   | (4/4) Accurately ripped
  5   | (4/4) Accurately ripped
  6   | (4/4) Accurately ripped
  7   | (4/4) Accurately ripped
  8   | (4/4) Accurately ripped
  9   | (4/4) Accurately ripped
 10   | (4/4) Accurately ripped
 11   | (4/4) Accurately ripped
[AccurateRip ID: 0012ca6b-00a1a27f-870a8e0b] found.
Track   [  CRC   |   V2   ] Status
 01     [63ff543d|0c0bbc7d] (004+000/100) Accurately ripped
 02     [ddd1f82b|093a13e0] (004+000/102) Accurately ripped
 03     [63f141c4|fa572416] (004+000/106) Accurately ripped
 04     [73815543|0f0dadad] (004+000/103) Accurately ripped
 05     [0197ba7d|e0da802a] (004+000/103) Accurately ripped
 06     [1170e4b3|676249d6] (004+000/103) Accurately ripped
 07     [9e45adb0|5ef08b8c] (004+000/101) Accurately ripped
 08     [7bb2bb64|67253b71] (004+000/102) Accurately ripped
 09     [614ccf5f|e44d76f3] (004+000/101) Accurately ripped
 10     [c9f226ab|8715e37a] (004+000/100) Accurately ripped
 11     [9bb0d61e|b4b98915] (004+000/100) Accurately ripped
Offsetted by 545:
 01     [5245323e] (005/100) Accurately ripped
 02     [f7e833e8] (005/102) Accurately ripped
 03     [aeb13866] (005/106) Accurately ripped
 04     [ae56d24c] (006/103) Accurately ripped
 05     [a121475b] (005/103) Accurately ripped
 06     [24fdf2b1] (005/103) Accurately ripped
 07     [00f7464b] (006/101) Accurately ripped
 08     [692f7b09] (005/102) Accurately ripped
 09     [20d77941] (004/101) Accurately ripped
 10     [e1ddaac3] (005/100) Accurately ripped
 11     [617e75ca] (005/100) Accurately ripped
Offsetted by 594:
 01     [d86d4c4f] (019/100) Accurately ripped
 02     [22a61775] (019/102) Accurately ripped
 03     [3f0ad128] (020/106) Accurately ripped
 04     [290f5be5] (018/103) Accurately ripped
 05     [1ceb6a19] (018/103) Accurately ripped
 06     [4aeb288f] (019/103) Accurately ripped
 07     [086e1c96] (018/101) Accurately ripped
 08     [eb8380fe] (018/102) Accurately ripped
 09     [ae11f943] (019/101) Accurately ripped
 10     [859a105b] (018/100) Accurately ripped
 11     [d0eef10f] (016/100) Accurately ripped
Offsetted by 640:
 01     [c94f06bd] (008/100) Accurately ripped
 02     [2b6d40ab] (007/102) Accurately ripped
 03     [43f136c4] (008/106) Accurately ripped
 04     [29541bc3] (008/103) Accurately ripped
 05     [71c8857d] (008/103) Accurately ripped
 06     [b7aa7fb3] (008/103) Accurately ripped
 07     [8799c130] (008/101) Accurately ripped
 08     [c3e747e4] (008/102) Accurately ripped
 09     [e448e45f] (008/101) Accurately ripped
 10     [a1ece2ab] (008/100) Accurately ripped
 11     [9534cd4f] (008/100) Accurately ripped
Offsetted by 671:
 01     [cfd0e2fc] (025/100) Accurately ripped
 02     [8a62c62e] (026/102) Accurately ripped
 03     [8f979ca2] (026/106) Accurately ripped
 04     [c555eafa] (027/103) Accurately ripped
 05     [04047c1f] (027/103) Accurately ripped
 06     [86847d35] (027/103) Accurately ripped
 07     [5d4d6d55] (026/101) Accurately ripped
 08     [4a99d37f] (026/102) Accurately ripped
 09     [676de6fd] (026/101) Accurately ripped
 10     [192fd493] (027/100) Accurately ripped
 11     [c90ce4f5] (027/100) Accurately ripped
Offsetted by 1977:
 01     [a82784d6] (003/100) Accurately ripped
 02     [4bf3a620] (003/102) Accurately ripped
 03     [5d7dec96] (003/106) Accurately ripped
 04     [ab91a1a4] (003/103) Accurately ripped
 05     [35c1a72b] (003/103) Accurately ripped
 06     [c2853d81] (003/103) Accurately ripped
 07     [77d69853] (003/101) Accurately ripped
 08     [f1250f01] (003/102) Accurately ripped
 09     [5f851b71] (003/101) Accurately ripped
 10     [5eb84903] (003/100) Accurately ripped
 11     [bb92a58e] (003/100) Accurately ripped
Offsetted by 2524:
 01     [f9f1a299] (007/100) Accurately ripped
 02     [7cae5e17] (007/102) Accurately ripped
 03     [5a8aaffc] (007/106) Accurately ripped
 04     [8d5efa7f] (007/103) Accurately ripped
 05     [ef3e8e45] (007/103) Accurately ripped
 06     [fc30dffb] (007/103) Accurately ripped
 07     [e00fa764] (007/101) Accurately ripped
 08     [a541f8b0] (007/102) Accurately ripped
 09     [59122897] (007/101) Accurately ripped
 10     [d0ea2f4b] (007/100) Accurately ripped
 11     [d2c9ab6d] (007/100) Accurately ripped
Offsetted by 2759:
 01     [a724e624] (006/100) Accurately ripped
 02     [e12d62b6] (006/102) Accurately ripped
 03     [b0caabf2] (008/106) Accurately ripped
 04     [b0225f62] (007/103) Accurately ripped
 05     [d87078cf] (007/103) Accurately ripped
 06     [fb3a06e5] (007/103) Accurately ripped
 07     [e9bc868d] (006/101) Accurately ripped
 08     [4fc54447] (007/102) Accurately ripped
 09     [f92ab84d] (007/101) Accurately ripped
 10     [40384053] (007/100) Accurately ripped
 11     [d024c0e3] (007/100) Accurately ripped

Track Peak [ CRC32  ] [W/O NULL] [  LOG   ]
 --  100,0 [8D84873E] [853C0D0A]   CRC32
 01   87,7 [EA37976A] [38A2A525]
 02   89,9 [7FC42C94] [91A2458F]
 03   83,9 [241D7E3D] [0A115159]
 04   71,8 [23F788E1] [82394C97]
 05   72,7 [095E4FB0] [745260AA]
 06   98,3 [73D63963] [D4DE8267]
 07   96,8 [56D1C500] [0CCEA4D1]
 08   79,7 [46CEB00F] [21B4A49A]
 09  100,0 [4CD2E87C] [E2D8610E]
 10   94,4 [B106CDAD] [D3D09211]
 11  100,0 [F50B891F] [1C22B109]

Правила, инструкции, FAQ!!!
Торрент  Добавлен [16 мар 2014, 00:02] Скачать торрент Магнет ссылка
Скачать торрент
[ Размер 12.94 КБ / Просмотров 51 ]

Статус  
 
Размер  300.71 МБ
Приватный: Нет (DHT включён)
.torrent скачан  3
 


     Отправить личное сообщение
   
Страница 1 из 1
Показать сообщения за:  Поле сортировки  
Начать новую тему Ответить на тему


Сейчас этот форум просматривают: нет зарегистрированных пользователей и гости: 0


Вы не можете начинать темы
Вы не можете отвечать на сообщения
Вы не можете редактировать свои сообщения
Вы не можете удалять свои сообщения
Вы не можете добавлять вложения

Перейти:  
cron