Начать новую тему Ответить на тему
Статистика раздачи
Размер: 338.64 МБ | Добавлен: 16 мар 2014, 00:10 | Скачали: 0
Сидеров: 1  [0 байт/сек]    Личеров: 0  [0 байт/сек]
Пред. тема | След. тема 

Автор
Сообщение

СообщениеДобавлено: 16 мар 2014, 00:10 

Ответить с цитатой 

Back Door - The Human Bed (1973-1974) Released 2002

Жанр: Jazz Rock/Progressive Rock
Год: 1973-1974
Страна: UK
Released: 2002/Australia
Label: Fruit Gum Corp.
Catalog#: Hux 031
Аудио кодек: FLAC
Тип рипа: tracks + .cue
Битрейт аудио: lossless
Продолжительность: 00:46:04
Источник-релизер: Musicgate
Scans: в раздаче
Треклист:
01. Vienna Breakdown (3:21)
02. Blue Country Blues (2:30)
03. Captain Crack Up (2:47)
04. Whe You've Got a Good Friend (3:19)
05. Adolphus Beal (3:43)
06. Human Bed (2:29)
07. Fanny Wiggins (3:01)
08. Walkin Blues (3:45)
09. Louisiana Blues (3:15)
10. Slivadiv (3:33)
11. The Spoiler (5:31)
12. TB Blues (3:27)
13. Blakey Jones (4:01)
14. The Dashing White Sargeant (1:22)

Один из самых необычных и новаторских коллективов Англии Backdoor выпустил в средине 70х годов несколько пластинок, каждую из которых можно смело отнести к золотому фонду "британского прогрессивного рока". Молодым музыкантам этого трио удалось органично совместить тенденции чистого джаза и джаз- рока с элементарными блюзовыми стандартами.
Альбом содержит три ранее не изданные сессии на Radio 1, записанные в 1973-1974.

Musicians:
- Ron Aspery - Alto and soprano saxophones. Also electric piano on Fanny Wiggins, Walkin' Blues & The Spoiler
- Colin Hodgkinson - Bass guitar, vocals. 12 string guitar on TB Blues
- Tony Hicks - Drums
- Dave MacRae - Electric piano on Slivadiv, The Spoiler, TB Blues, Blakey Jones & The Dashing White Sergeant
Код:
Код:
Exact Audio Copy V0.99 prebeta 4 from 23. January 2008

EAC extraction logfile from 1. November 2008, 13:18

back door / the human bed

Used drive  : Optiarc DVD RW AD-7170A   Adapter: 1  ID: 0

Read mode               : Secure
Utilize accurate stream : Yes
Defeat audio cache      : Yes
Make use of C2 pointers : No

Read offset correction                      : 48
Overread into Lead-In and Lead-Out          : No
Fill up missing offset samples with silence : Yes
Delete leading and trailing silent blocks   : No
Null samples used in CRC calculations       : Yes
Used interface                              : Installed external ASPI interface
Gap handling                                : Appended to previous track

Used output format              : User Defined Encoder
Selected bitrate                : 768 kBit/s
Quality                         : High
Add ID3 tag                     : No
Command line compressor         : C:\Program Files\Exact Audio Copy\FLAC\FLAC.EXE
Additional command line options : -6 -V -T "ARTIST=%a" -T "TITLE=%t" -T "ALBUM=%g" -T "DATE=%y" -T "TRACKNUMBER=%n" -T "GENRE=%m" -T "COMMENT=%e" %s -o %d

TOC of the extracted CD

     Track |   Start  |  Length  | Start sector | End sector
    ---------------------------------------------------------
        1  |  0:00.00 |  3:20.56 |         0    |    15055
        2  |  3:20.56 |  2:30.31 |     15056    |    26336
        3  |  5:51.12 |  2:46.53 |     26337    |    38839
        4  |  8:37.65 |  3:19.03 |     38840    |    53767
        5  | 11:56.68 |  3:43.00 |     53768    |    70492
        6  | 15:39.68 |  2:29.00 |     70493    |    81667
        7  | 18:08.68 |  3:01.28 |     81668    |    95270
        8  | 21:10.21 |  3:45.31 |     95271    |   112176
        9  | 24:55.52 |  3:15.27 |    112177    |   126828
       10  | 28:11.04 |  3:32.43 |    126829    |   142771
       11  | 31:43.47 |  5:31.18 |    142772    |   167614
       12  | 37:14.65 |  3:27.37 |    167615    |   183176
       13  | 40:42.27 |  4:00.40 |    183177    |   201216
       14  | 44:42.67 |  1:22.00 |    201217    |   207366

Track  1

     Filename C:\byPr0gger\Back Door - The Human Bed (1973-74)[FLAC]{2002,Hux 031}\01. vienna breakdown.wav

     Pre-gap length  0:00:02.00

     Peak level 99.4 %
     Track quality 100.0 %
     Test CRC 044A643A
     Copy CRC 044A643A
     Track not present in AccurateRip database
     Copy OK

Track  2

     Filename C:\byPr0gger\Back Door - The Human Bed (1973-74)[FLAC]{2002,Hux 031}\02. blue country blues.wav

     Pre-gap length  0:00:02.02

     Peak level 99.4 %
     Track quality 99.9 %
     Test CRC C92C8B9F
     Copy CRC C92C8B9F
     Track not present in AccurateRip database
     Copy OK

Track  3

     Filename C:\byPr0gger\Back Door - The Human Bed (1973-74)[FLAC]{2002,Hux 031}\03. captain crack up.wav

     Pre-gap length  0:00:02.02

     Peak level 92.9 %
     Track quality 99.9 %
     Test CRC 660DDD3F
     Copy CRC 660DDD3F
     Track not present in AccurateRip database
     Copy OK

Track  4

     Filename C:\byPr0gger\Back Door - The Human Bed (1973-74)[FLAC]{2002,Hux 031}\04. whe you've got a good friend.wav

     Pre-gap length  0:00:02.02

     Peak level 99.4 %
     Track quality 100.0 %
     Test CRC 14573A7F
     Copy CRC 14573A7F
     Track not present in AccurateRip database
     Copy OK

Track  5

     Filename C:\byPr0gger\Back Door - The Human Bed (1973-74)[FLAC]{2002,Hux 031}\05. adolphus beal.wav

     Pre-gap length  0:00:02.02

     Peak level 99.4 %
     Track quality 100.0 %
     Test CRC BD717CF7
     Copy CRC BD717CF7
     Track not present in AccurateRip database
     Copy OK

Track  6

     Filename C:\byPr0gger\Back Door - The Human Bed (1973-74)[FLAC]{2002,Hux 031}\06. human bed.wav

     Pre-gap length  0:00:02.02

     Peak level 99.4 %
     Track quality 100.0 %
     Test CRC 3C59614D
     Copy CRC 3C59614D
     Track not present in AccurateRip database
     Copy OK

Track  7

     Filename C:\byPr0gger\Back Door - The Human Bed (1973-74)[FLAC]{2002,Hux 031}\07. fanny wiggins.wav

     Pre-gap length  0:00:02.02

     Peak level 99.4 %
     Track quality 100.0 %
     Test CRC 165DB2F0
     Copy CRC 165DB2F0
     Track not present in AccurateRip database
     Copy OK

Track  8

     Filename C:\byPr0gger\Back Door - The Human Bed (1973-74)[FLAC]{2002,Hux 031}\08. walkin blues.wav

     Pre-gap length  0:00:02.02

     Peak level 99.4 %
     Track quality 100.0 %
     Test CRC DF660C5C
     Copy CRC DF660C5C
     Track not present in AccurateRip database
     Copy OK

Track  9

     Filename C:\byPr0gger\Back Door - The Human Bed (1973-74)[FLAC]{2002,Hux 031}\09. louisiana blues.wav

     Pre-gap length  0:00:02.02

     Peak level 99.4 %
     Track quality 100.0 %
     Test CRC 5C6BA42C
     Copy CRC 5C6BA42C
     Track not present in AccurateRip database
     Copy OK

Track 10

     Filename C:\byPr0gger\Back Door - The Human Bed (1973-74)[FLAC]{2002,Hux 031}\10. slivadiv.wav

     Pre-gap length  0:00:02.02

     Peak level 99.4 %
     Track quality 100.0 %
     Test CRC 77B54795
     Copy CRC 77B54795
     Track not present in AccurateRip database
     Copy OK

Track 11

     Filename C:\byPr0gger\Back Door - The Human Bed (1973-74)[FLAC]{2002,Hux 031}\11. the spoiler.wav

     Pre-gap length  0:00:02.02

     Peak level 99.4 %
     Track quality 100.0 %
     Test CRC B74B5A85
     Copy CRC B74B5A85
     Track not present in AccurateRip database
     Copy OK

Track 12

     Filename C:\byPr0gger\Back Door - The Human Bed (1973-74)[FLAC]{2002,Hux 031}\12. tb blues.wav

     Pre-gap length  0:00:02.02

     Peak level 99.4 %
     Track quality 100.0 %
     Test CRC 238D4E0A
     Copy CRC 238D4E0A
     Track not present in AccurateRip database
     Copy OK

Track 13

     Filename C:\byPr0gger\Back Door - The Human Bed (1973-74)[FLAC]{2002,Hux 031}\13. blakey jones.wav

     Pre-gap length  0:00:02.02

     Peak level 99.4 %
     Track quality 100.0 %
     Test CRC 1CDFD6A1
     Copy CRC 1CDFD6A1
     Track not present in AccurateRip database
     Copy OK

Track 14

     Filename C:\byPr0gger\Back Door - The Human Bed (1973-74)[FLAC]{2002,Hux 031}\14. the dashing white sargeant.wav

     Pre-gap length  0:00:02.02

     Peak level 99.4 %
     Track quality 100.0 %
     Test CRC DCF30932
     Copy CRC DCF30932
     Track not present in AccurateRip database
     Copy OK

None of the tracks are present in the AccurateRip database

No errors occurred

End of status report
Код:
Код:
-----------------------

DON'T MODIFY THIS FILE

-----------------------

PERFORMER: auCDtect Task Manager, ver. 1.6.0 RC1 build 1.6.0.1
Copyright (c) 2008-2010 y-soft. All rights reserved
http:/y-soft.org

ANALYZER: auCDtect: CD records authenticity detector, version 0.8.2
Copyright (c) 2004 Oleg Berngardt. All rights reserved.
Copyright (c) 2004 Alexander Djourik. All rights reserved.

FILE: 14. the dashing white sargeant.flac
  Size: 10209310 Hash: 1C8F348F314809F729D9F39F35C24BF3 Accuracy: -m0
  Conclusion: CDDA 100%
  Signature: 454A2F69920D5E09E169012E149F1A29D79C327E
FILE: 13. blakey jones.flac
  Size: 30668327 Hash: 96A71F3217B07A37FE7FC3F1FA540664 Accuracy: -m0
  Conclusion: CDDA 100%
  Signature: 5603AC9E9372D447EEB04E1522CCF77835028569
FILE: 12. tb blues.flac
  Size: 24118087 Hash: 477DF56584529BD60B89803C47DA156F Accuracy: -m0
  Conclusion: CDDA 100%
  Signature: D6F376CBC0CB9909C740D71438DCA22513ED5542
FILE: 11. the spoiler.flac
  Size: 44397007 Hash: D27531339C4A502FFD697110A45FECC1 Accuracy: -m0
  Conclusion: CDDA 100%
  Signature: 5F35A2A060222B2D7ECC2DCFDB886790497BD092
FILE: 10. slivadiv.flac
  Size: 26765631 Hash: B506E5C9CD93FE728ED069629B694978 Accuracy: -m0
  Conclusion: CDDA 100%
  Signature: 4D6AD14D5C2FC0C6F2533C48C4A46C48417EB113
FILE: 09. louisiana blues.flac
  Size: 24550966 Hash: 0E381A82F510FB980D9347449F5F68BE Accuracy: -m0
  Conclusion: CDDA 100%
  Signature: EC02F45AB17BAC24B088A07786F9D29610BE68D2
FILE: 08. walkin blues.flac
  Size: 27548278 Hash: 4B9A1A0EC48CC5931B21B6CC9AF92C9A Accuracy: -m0
  Conclusion: CDDA 100%
  Signature: 37F998BE30630ACCABF799A88408AD9AEC55AACC
FILE: 07. fanny wiggins.flac
  Size: 22851551 Hash: 4B85B6E410788749E36F44C2635788C5 Accuracy: -m0
  Conclusion: CDDA 100%
  Signature: 0CC99F5B777D25148D923CA689DA7FB10397C988
FILE: 06. human bed.flac
  Size: 18218265 Hash: C8EAE1EE78D4FF8BCADDA452727F35EF Accuracy: -m0
  Conclusion: CDDA 100%
  Signature: 290595B43C93CEE88E5F82E5C57312A2DF113DDD
FILE: 05. adolphus beal.flac
  Size: 27671541 Hash: 8A6A9C805E395DF1F347A01A585A6EC9 Accuracy: -m0
  Conclusion: CDDA 100%
  Signature: C304D2BD7A64147F3C669A69D252148E14C45F5B
FILE: 04. whe you've got a good friend.flac
  Size: 22683846 Hash: 6201909C1EFF7C33155021094925320C Accuracy: -m0
  Conclusion: CDDA 100%
  Signature: 8C749406C4B5F337051DB3A0006C061161C8D867
FILE: 03. captain crack up.flac
  Size: 14738374 Hash: 26F86685298C22B281A30E6B5DBE0C9D Accuracy: -m0
  Conclusion: CDDA 100%
  Signature: 04E9AA83CB0E76C9F5B7C17E48405DDE675F5D80
FILE: 02. blue country blues.flac
  Size: 16929760 Hash: E950EC10AD6DCD7D93DEDCD6BEA98D81 Accuracy: -m0
  Conclusion: CDDA 100%
  Signature: BACEA4068BF84F38E38DF14E42AB29CE87B6C557
FILE: 01. vienna breakdown.flac
  Size: 23860257 Hash: BFC0903BDCD6F4EBA3D1447E98F8E49A Accuracy: -m0
  Conclusion: CDDA 100%
  Signature: 84D21DA49745D928817DFC1DE50F5FFA22D3DBFE
Код:
Код:
REM GENRE " jazz-rock"
REM DATE 2002
REM DISCID BA0ACC0E
REM COMMENT "ExactAudioCopy v0.99pb4"
PERFORMER "back door"
TITLE "the human bed"
FILE "01. vienna breakdown.wav" WAVE
TRACK 01 AUDIO
TITLE "vienna breakdown"
PERFORMER "back door"
INDEX 01 00:00:00
TRACK 02 AUDIO
TITLE "blue country blues"
PERFORMER "back door"
INDEX 00 03:18:54
FILE "02. blue country blues.wav" WAVE
INDEX 01 00:00:00
TRACK 03 AUDIO
TITLE "captain crack up"
PERFORMER "back door"
INDEX 00 02:28:29
FILE "03. captain crack up.wav" WAVE
INDEX 01 00:00:00
TRACK 04 AUDIO
TITLE "whe you've got a good friend"
PERFORMER "back door"
INDEX 00 02:44:51
FILE "04. whe you've got a good friend.wav" WAVE
INDEX 01 00:00:00
TRACK 05 AUDIO
TITLE "adolphus beal"
PERFORMER "back door"
INDEX 00 03:17:01
FILE "05. adolphus beal.wav" WAVE
INDEX 01 00:00:00
TRACK 06 AUDIO
TITLE "human bed"
PERFORMER "back door"
INDEX 00 03:40:73
FILE "06. human bed.wav" WAVE
INDEX 01 00:00:00
TRACK 07 AUDIO
TITLE "fanny wiggins"
PERFORMER "back door"
INDEX 00 02:26:73
FILE "07. fanny wiggins.wav" WAVE
INDEX 01 00:00:00
TRACK 08 AUDIO
TITLE "walkin blues"
PERFORMER "back door"
INDEX 00 02:59:26
FILE "08. walkin blues.wav" WAVE
INDEX 01 00:00:00
TRACK 09 AUDIO
TITLE "louisiana blues"
PERFORMER "back door"
INDEX 00 03:43:29
FILE "09. louisiana blues.wav" WAVE
INDEX 01 00:00:00
TRACK 10 AUDIO
TITLE "slivadiv"
PERFORMER "back door"
INDEX 00 03:13:25
FILE "10. slivadiv.wav" WAVE
INDEX 01 00:00:00
TRACK 11 AUDIO
TITLE "the spoiler"
PERFORMER "back door"
INDEX 00 03:30:41
FILE "11. the spoiler.wav" WAVE
INDEX 01 00:00:00
TRACK 12 AUDIO
TITLE "tb blues"
PERFORMER "back door"
INDEX 00 05:29:16
FILE "12. tb blues.wav" WAVE
INDEX 01 00:00:00
TRACK 13 AUDIO
TITLE "blakey jones"
PERFORMER "back door"
INDEX 00 03:25:35
FILE "13. blakey jones.wav" WAVE
INDEX 01 00:00:00
TRACK 14 AUDIO
TITLE "the dashing white sargeant"
PERFORMER "back door"
INDEX 00 03:58:38
FILE "14. the dashing white sargeant.wav" WAVE
INDEX 01 00:00:00
Правила, инструкции, FAQ!!!
Торрент  Добавлен [16 мар 2014, 00:10] Скачать торрент Магнет ссылка
Скачать торрент
[ Размер 15.09 КБ / Просмотров 24 ]

Статус  
 
Размер  338.64 МБ
Приватный: Нет (DHT включён)
.torrent скачан  0
 


     Отправить личное сообщение
   
Страница 1 из 1
Показать сообщения за:  Поле сортировки  
Начать новую тему Ответить на тему


Сейчас этот форум просматривают: нет зарегистрированных пользователей и гости: 0


Вы не можете начинать темы
Вы не можете отвечать на сообщения
Вы не можете редактировать свои сообщения
Вы не можете удалять свои сообщения
Вы не можете добавлять вложения

Перейти:  
cron
cron