Начать новую тему Ответить на тему
Статистика раздачи
Размер: 975.06 МБ | Добавлен: 01 июл 2017, 08:14 | Скачали: 1
Сидеров: 3  [0 байт/сек]    Личеров: 1  [0 байт/сек]
Пред. тема | След. тема 

Автор
Сообщение

СообщениеДобавлено: 01 июл 2017, 08:14 

Ответить с цитатой 

Babyface - Return Of The Tender Lover
Формат записи/Источник записи: [TR24][OF]
Наличие водяных знаков: Нет
Год издания/переиздания диска: 2015
Жанр: Pop, R&B
Издатель(лейбл): Def Jam Records
Продолжительность: 42:52
Наличие сканов в содержимом раздачи: Нет

Треклист:
01. We've Got Love (4:49)
02. Fight For Love (4:58)
03. Exceptional (5:41)
04. Walking On Air (feat. El DeBarge) (3:54)
05. I Want You (feat. After 7) (4:21)
06. Love And Devotion (3:44)
07. Standing Ovation (4:47)
08. Something Bout You (5:59)
09. Our Love (4:37) 

Контейнер: FLAC (*.flac)
Тип рипа: tracks
Разрядность: 24/88,2
Количество каналов: 2.0
Код:
foobar2000 1.1.6 / Dynamic Range Meter 1.1.1
log date: 2015-12-06 20:47:40
--------------------------------------------------------------------------------
Analyzed: Babyface / Return Of The Tender Lover
--------------------------------------------------------------------------------
DR         Peak         RMS     Duration Track
--------------------------------------------------------------------------------
DR7        0.00 dB    -8.21 dB      4:49 01-We've Got Love
DR6        0.00 dB    -7.80 dB      4:58 02-Fight For Love
DR8        0.00 dB    -9.36 dB      5:41 03-Exceptional
DR6        0.00 dB    -7.87 dB      3:54 04-Walking On Air (feat. El DeBarge)
DR7       -0.04 dB    -8.37 dB      4:21 05-I Want You (feat. After 7)
DR7        0.00 dB    -8.20 dB      3:44 06-Love And Devotion
DR7        0.00 dB    -8.27 dB      4:47 07-Standing Ovation
DR7        0.00 dB    -8.58 dB      5:59 08-Something Bout You
DR7        0.00 dB    -9.24 dB      4:37 09-Our Love
--------------------------------------------------------------------------------
Number of tracks:  9
Official DR value: DR7
Samplerate:        88200 Hz
Channels:          2
Bits per sample:   24
Bitrate:           2914 kbps
Codec:             FLAC
================================================================================
Источник: hdtracks.com[/spoiler]
Правила, инструкции, FAQ!!!
Торрент  Добавлен [01 июл 2017, 08:14] Скачать торрент Магнет ссылка
Скачать торрент
[ Размер 20.2 КБ / Просмотров 62 ]

Статус
Проверен 
 
Размер  975.06 МБ
Приватный: Нет (DHT включён)
.torrent скачан  1
 


     Отправить личное сообщение
   
Страница 1 из 1
Показать сообщения за:  Поле сортировки  
Начать новую тему Ответить на тему


Сейчас этот форум просматривают: нет зарегистрированных пользователей и гости: 0


Вы не можете начинать темы
Вы не можете отвечать на сообщения
Вы не можете редактировать свои сообщения
Вы не можете удалять свои сообщения
Вы не можете добавлять вложения

Перейти:  
cron