Начать новую тему Ответить на тему
Статистика раздачи
Размер: 483.71 МБ | Добавлен: 08 июн 2019, 08:51 | Скачали: 7
Сидеров: 23  [0 байт/сек]    Личеров: 7  [0 байт/сек]
Пред. тема | След. тема 

Автор
Сообщение

СообщениеДобавлено: 08 июн 2019, 08:51 

Ответить с цитатой 

Aurora - A Different Kind Of Human: Step 2


Формат записи/Источник записи: [TR24][OF]
Наличие водяных знаков: Нет
Год издания: 2019
Жанр: Pop
Издатель (лейбл): Decca
Продолжительность: 00:40:03
Наличие сканов в содержимом раздачи: Только обложка альбома
Контейнер: FLAC (*.flac)
Тип рипа: tracks
Разрядность: 24/48
Формат: PCM
Количество каналов: 2.0
Источник (релизер): highresaudio.com
Треклист
1. The River (03:37)
2. Animal (03:35)
3. Dance on the Moon (03:36)
4. Daydreamer (03:39)
5. Hunger (02:46)
6. Soulless Creatures (05:02)
7. In Bottles (03:58)
8. A Different Kind of Human (04:01)
9. Apple Tree (03:08)
10. The Seed (04:26)
11. Mothership (02:16)
Код:
foobar2000 1.4 / Dynamic Range Meter 1.1.1
log date: 2019-06-07 18:28:43
--------------------------------------------------------------------------------
Analyzed: Aurora / A Different Kind Of Human – Step 2
--------------------------------------------------------------------------------
DR         Peak         RMS     Duration Track
--------------------------------------------------------------------------------
DR5       -0.21 dB    -7.15 dB      3:38 01-The River
DR4       -0.21 dB    -7.10 dB      3:35 02-Animal
DR6       -0.21 dB    -7.84 dB      3:36 03-Dance On The Moon
DR5       -0.21 dB    -7.58 dB      3:39 04-Daydreamer
DR6       -0.21 dB    -8.38 dB      2:47 05-Hunger
DR6       -0.21 dB    -8.34 dB      5:02 06-Soulless Creatures
DR5       -0.21 dB    -7.79 dB      3:58 07-In Bottles
DR5       -0.21 dB    -9.85 dB      4:01 08-A Different Kind Of Human
DR5       -0.21 dB    -7.57 dB      3:08 09-Apple Tree
DR6       -0.21 dB    -8.80 dB      4:27 10-The Seed
DR10      -3.08 dB   -17.78 dB      2:17 11-Mothership
--------------------------------------------------------------------------------
Number of tracks:  11
Official DR value: DR6
Samplerate:        48000 Hz
Channels:          2
Bits per sample:   24
Bitrate:           1294 kbps
Codec:             FLAC
================================================================================
AURORA’s third album to date and one that forms the second part of last year’s surprise release; the critically acclaimed ‘Infections of A Different Kind’.
A more experimental album than its predecessors, it is a record that finds AURORA focusing on the ecological crisis and the consequences of the rampant individualism so prevalent in society.
Sonically, AURORA wanted this album to be more “explosive and noisy” than her previous releases, representing how her life has changed over the last two years. Ironically, the record was created in a more lo-fi space than before, over the course of a month. “[The recording of Infections…] was very elaborate - the location [a French chateau] was huge and beautiful and dreamy, I was far away and you can hear it. For this record I wanted to make it a very tiny room with a purple floor and dark blue walls, and it was just me and my drummers”.
Правила, инструкции, FAQ!!!
Торрент  Добавлен [08 июн 2019, 08:51] Скачать торрент Магнет ссылка
Скачать торрент
[ Размер 20 КБ / Просмотров 63 ]

Статус
Проверен 
 
Размер  483.71 МБ
Приватный: Нет (DHT включён)
.torrent скачан  7
 


     Отправить личное сообщение
   
Страница 1 из 1
Показать сообщения за:  Поле сортировки  
Начать новую тему Ответить на тему


Сейчас этот форум просматривают: нет зарегистрированных пользователей и гости: 0


Вы не можете начинать темы
Вы не можете отвечать на сообщения
Вы не можете редактировать свои сообщения
Вы не можете удалять свои сообщения
Вы не можете добавлять вложения

Перейти:  
cron
cron