Начать новую тему Ответить на тему
Статистика раздачи
Размер: 1.15 ГБ | Добавлен: 01 апр 2019, 18:59 | Скачали: 0
Сидеров: 0  [0 байт/сек]    Личеров: 0  [0 байт/сек]
Пред. тема | След. тема 

Автор
Сообщение

СообщениеДобавлено: 01 апр 2019, 18:59 

Ответить с цитатой 

Audra McDonald - Sing Happy
Формат записи/Источник записи: [TR24][OF]
Наличие водяных знаков: Нет
Год издания/переиздания диска: 2018
Жанр: Pop, Vocal
Издатель (лейбл): Universal Music Classics
Продолжительность: 61:41
Наличие сканов в содержимом раздачи: Только обложка альбома
Треклист:
01. I Am What I Am (3:02)
02. It Might As Well Be Spring / Hurry, It's Lovely Up Here (5:36)
03. Cornet Man (3:24)
04. Sing Happy (3:02)
05. Simple Little Things (3:16)
06. Introduction To Being Good Isn't Good Enough (0:29)
07. Being Good Isn't Good Enough (2:56)
08. Summertime (3:07)
09. Chain Of Love (3:16)
10. Vanilla Ice Cream (3:02)
11. March Is A Windy Month (3:22)
12. Introduction To Medley (0:28)
13. Children Will Listen / You've Got To Be Carefully Taught (4:21)
14. Facebook Song (3:22)
15. Never Will I Marry (4:12)
16. Being Alive (2:24)
17. Introduction To Make Someone Happy (0:54)
18. Make Someone Happy (4:04)
19. Introduction To Climb Ev'ry Mountain (1:37)
20. Climb Ev'ry Mountain (2:49)
21. More I Cannot Wish You (2:58)
 
Decca Gold is proud to announce the forthcoming release of Sing Happy, the live performance of the New York Philharmonic’s 2018 Spring Gala starring Grammy, Emmy, and Tony Award-winner Audra McDonald, conducted by Andy Einhorn. Recorded live on May 1 at David Geffen Hall at Lincoln Center, the recording represents McDonald’s first collaboration with Decca Gold – as well as her first solo recording with full orchestra.
Sing Happy features many songs that are either new to McDonald’s repertoire or have never before been recorded by her – such as “I Am What I Am” from La Cage aux Folles, “Vanilla Ice Cream” from She Loves Me, and “Children Will Listen” from Into The Woods– and offers a sneak peek at the repertoire she’s performing on her upcoming North American concert tour.

Контейнер: FLAC (*.flac)
Тип рипа: tracks
Разрядность: 24/96
Формат: PCM
Количество каналов: 2.0
Код:
foobar2000 1.3.9 / Dynamic Range Meter 1.1.1
log date: 2018-05-12 03:44:27
--------------------------------------------------------------------------------
Analyzed: Audra McDonald / Sing Happy
--------------------------------------------------------------------------------
DR         Peak         RMS     Duration Track
--------------------------------------------------------------------------------
DR14      -0.22 dB   -21.95 dB      3:02 01-I Am What I Am
DR16      -0.22 dB   -21.35 dB      5:36 02-It Might As Well Be Spring / Hurry, It's Lovely Up Here
DR14      -0.22 dB   -18.86 dB      3:24 03-Cornet Man
DR13      -2.09 dB   -19.63 dB      3:02 04-Sing Happy
DR13      -3.41 dB   -22.24 dB      3:16 05-Simple Little Things
DR15     -11.70 dB   -30.15 dB      0:29 06-Introduction To Being Good Isn't Good Enough
DR12      -0.22 dB   -18.96 dB      2:56 07-Being Good Isn't Good Enough
DR13      -5.47 dB   -24.46 dB      3:07 08-Summertime
DR14      -0.22 dB   -21.14 dB      3:16 09-Chain Of Love
DR13      -0.22 dB   -19.51 dB      3:02 10-Vanilla Ice Cream
DR12      -0.22 dB   -17.83 dB      3:22 11-March Is A Windy Month
DR9       -5.88 dB   -25.31 dB      0:28 12-Introduction To Medley
DR13      -0.22 dB   -19.61 dB      4:21 13-Children Will Listen / You've Got To Be Carefully Taught
DR14      -0.22 dB   -19.92 dB      3:22 14-Facebook Song
DR12      -0.22 dB   -17.78 dB      4:12 15-Never Will I Marry
DR13      -0.22 dB   -17.90 dB      2:24 16-Being Alive
DR17      -7.99 dB   -30.74 dB      0:54 17-Introduction To Make Someone Happy
DR12      -2.91 dB   -20.03 dB      4:04 18-Make Someone Happy
DR17      -2.09 dB   -27.25 dB      1:37 19-Introduction To Climb Ev'ry Mountain
DR12      -0.22 dB   -17.66 dB      2:49 20-Climb Ev'ry Mountain
DR13      -2.25 dB   -23.59 dB      2:58 21-More I Cannot Wish You
--------------------------------------------------------------------------------
Number of tracks:  21
Official DR value: DR13
Samplerate:        96000 Hz
Channels:          2
Bits per sample:   24
Bitrate:           2440 kbps
Codec:             FLAC
================================================================================
Источник: hdtracks.com[/spoiler]
Правила, инструкции, FAQ!!!
Торрент  Добавлен [01 апр 2019, 18:59] Скачать торрент Магнет ссылка
Скачать торрент
[ Размер 13.44 КБ / Просмотров 13 ]

Статус
Проверен 
 
Размер  1.15 ГБ
Приватный: Нет (DHT включён)
.torrent скачан  0
 


     Отправить личное сообщение
   
Страница 1 из 1
Показать сообщения за:  Поле сортировки  
Начать новую тему Ответить на тему


Сейчас этот форум просматривают: нет зарегистрированных пользователей и гости: 0


Вы не можете начинать темы
Вы не можете отвечать на сообщения
Вы не можете редактировать свои сообщения
Вы не можете удалять свои сообщения
Вы не можете добавлять вложения

Перейти:  
cron
cron