Начать новую тему Ответить на тему
Статистика раздачи
Размер: 262.5 МБ | Добавлен: 16 мар 2014, 00:40 | Скачали: 0
Сидеров: 2  [0 байт/сек]    Личеров: 1  [0 байт/сек]
Пред. тема | След. тема 

Автор
Сообщение

СообщениеДобавлено: 16 мар 2014, 00:40 

Ответить с цитатой 

Audio Adrenaline - Kings & Queens (2013)

Год: 2013
Жанр: Christian Rock, Alternative Rock
Издатель (лейбл): Fair Trade
Номер по каталогу: 16048
Страна: USA
Аудиокодек: FLAC (*.flac)
Тип рипа: tracks+.cue
Битрейт аудио: lossless
Продолжительность: 00:33:38
Источник (релизер): what.cd
(hayamate)
Треклист:
01. He Moves You Move (3:04)
02. Kings & Queens (3:49)
03. Believer (3:29)
04. King Of The Comebacks (3:04)
05. Change My Name (3:52)
07. Fire Never Sleeps (4:33)
08. Seeker (3:21)
09. I Climb The Mountain (4:28)
10. The Answer (3:58)
Код:
Код:
X Lossless Decoder version 20130127 (142.3)

XLD extraction logfile from 2013-04-05 22:09:59 -0400

Audio Adrenaline / Kings & Queens

Used drive : MATSHITA DVD-R   UJ-898 (revision HE13)
Media type : Pressed CD

Ripper mode             : XLD Secure Ripper
Disable audio cache     : OK for the drive with a cache less than 1375KiB
Make use of C2 pointers : NO
Read offset correction  : 102
Max retry count         : 20
Gap status              : Analyzed, Appended (except HTOA)

TOC of the extracted CD
     Track |   Start  |  Length  | Start sector | End sector
    ---------------------------------------------------------
        1  | 00:00:00 | 03:03:57 |         0    |    13781
        2  | 03:03:57 | 03:49:28 |     13782    |    30984
        3  | 06:53:10 | 03:28:68 |     30985    |    46652
        4  | 10:22:03 | 03:03:39 |     46653    |    60416
        5  | 13:25:42 | 03:52:32 |     60417    |    77848
        6  | 17:17:74 | 03:23:68 |     77849    |    93141
        7  | 20:41:67 | 04:33:17 |     93142    |   113633
        8  | 25:15:09 | 03:20:64 |    113634    |   128697
        9  | 28:35:73 | 04:28:06 |    128698    |   148803
       10  | 33:04:04 | 03:58:08 |    148804    |   166661

AccurateRip Summary
    Disc not found in AccurateRip DB.

All Tracks
    Album gain               : -9.22 dB
    Peak                     : 0.965942
    Statistics
        Read error                           : 0
        Jitter error (maybe fixed)           : 0
        Retry sector count                   : 0
        Damaged sector count                 : 0

Track 01
    Filename : /Users/erwinfigueroa/Transmission/Uploaded/Audio Adrenaline - Kings & Queens (2013) [V0]/01 He Moves You Move.mp3
               /Users/erwinfigueroa/Transmission/Uploaded/Audio Adrenaline - Kings & Queens (2013) [FLAC]/01 He Moves You Move.flac
    Pre-gap length : 00:02:00

    Track gain               : -9.36 dB
    Peak                     : 0.938324
    CRC32 hash (test run)    : BB0DC156
    CRC32 hash               : BB0DC156
    CRC32 hash (skip zero)   : 899FEC96
    AccurateRip v1 signature : E99A1FF0
    AccurateRip v2 signature : E78C437E
        ->Track not present in AccurateRip database.
    Statistics
        Read error                           : 0
        Jitter error (maybe fixed)           : 0
        Retry sector count                   : 0
        Damaged sector count                 : 0

Track 02
    Filename : /Users/erwinfigueroa/Transmission/Uploaded/Audio Adrenaline - Kings & Queens (2013) [V0]/02 Kings & Queens.mp3
               /Users/erwinfigueroa/Transmission/Uploaded/Audio Adrenaline - Kings & Queens (2013) [FLAC]/02 Kings & Queens.flac

    Track gain               : -9.34 dB
    Peak                     : 0.965942
    CRC32 hash (test run)    : 9F784D4E
    CRC32 hash               : 9F784D4E
    CRC32 hash (skip zero)   : CB9C06B7
    AccurateRip v1 signature : 9816ACEA
    AccurateRip v2 signature : F110E8CC
        ->Track not present in AccurateRip database.
    Statistics
        Read error                           : 0
        Jitter error (maybe fixed)           : 0
        Retry sector count                   : 0
        Damaged sector count                 : 0

Track 03
    Filename : /Users/erwinfigueroa/Transmission/Uploaded/Audio Adrenaline - Kings & Queens (2013) [V0]/03 Believer.mp3
               /Users/erwinfigueroa/Transmission/Uploaded/Audio Adrenaline - Kings & Queens (2013) [FLAC]/03 Believer.flac

    Track gain               : -9.17 dB
    Peak                     : 0.956940
    CRC32 hash (test run)    : F3426C21
    CRC32 hash               : F3426C21
    CRC32 hash (skip zero)   : 0441F842
    AccurateRip v1 signature : 46778F2B
    AccurateRip v2 signature : EAF62A24
        ->Track not present in AccurateRip database.
    Statistics
        Read error                           : 0
        Jitter error (maybe fixed)           : 0
        Retry sector count                   : 0
        Damaged sector count                 : 0

Track 04
    Filename : /Users/erwinfigueroa/Transmission/Uploaded/Audio Adrenaline - Kings & Queens (2013) [V0]/04 King Of The Comebacks.mp3
               /Users/erwinfigueroa/Transmission/Uploaded/Audio Adrenaline - Kings & Queens (2013) [FLAC]/04 King Of The Comebacks.flac

    Track gain               : -9.76 dB
    Peak                     : 0.942810
    CRC32 hash (test run)    : 2588841B
    CRC32 hash               : 2588841B
    CRC32 hash (skip zero)   : 9B90C70F
    AccurateRip v1 signature : 0B8C3B95
    AccurateRip v2 signature : 14613F5E
        ->Track not present in AccurateRip database.
    Statistics
        Read error                           : 0
        Jitter error (maybe fixed)           : 0
        Retry sector count                   : 0
        Damaged sector count                 : 0

Track 05
    Filename : /Users/erwinfigueroa/Transmission/Uploaded/Audio Adrenaline - Kings & Queens (2013) [V0]/05 Change My Name.mp3
               /Users/erwinfigueroa/Transmission/Uploaded/Audio Adrenaline - Kings & Queens (2013) [FLAC]/05 Change My Name.flac

    Track gain               : -9.35 dB
    Peak                     : 0.965942
    CRC32 hash (test run)    : FCD2E3B5
    CRC32 hash               : FCD2E3B5
    CRC32 hash (skip zero)   : 4F9D2947
    AccurateRip v1 signature : 64B5398D
    AccurateRip v2 signature : F4C8C459
        ->Track not present in AccurateRip database.
    Statistics
        Read error                           : 0
        Jitter error (maybe fixed)           : 0
        Retry sector count                   : 0
        Damaged sector count                 : 0

Track 06
    Filename : /Users/erwinfigueroa/Transmission/Uploaded/Audio Adrenaline - Kings & Queens (2013) [V0]/06 20:17 (Raise The Banner).mp3
               /Users/erwinfigueroa/Transmission/Uploaded/Audio Adrenaline - Kings & Queens (2013) [FLAC]/06 20:17 (Raise The Banner).flac

    Track gain               : -8.75 dB
    Peak                     : 0.961182
    CRC32 hash (test run)    : 6C04E2D4
    CRC32 hash               : 6C04E2D4
    CRC32 hash (skip zero)   : 56622862
    AccurateRip v1 signature : 178CE4DA
    AccurateRip v2 signature : F5CCAA90
        ->Track not present in AccurateRip database.
    Statistics
        Read error                           : 0
        Jitter error (maybe fixed)           : 0
        Retry sector count                   : 0
        Damaged sector count                 : 0

Track 07
    Filename : /Users/erwinfigueroa/Transmission/Uploaded/Audio Adrenaline - Kings & Queens (2013) [V0]/07 Fire Never Sleeps.mp3
               /Users/erwinfigueroa/Transmission/Uploaded/Audio Adrenaline - Kings & Queens (2013) [FLAC]/07 Fire Never Sleeps.flac

    Track gain               : -8.65 dB
    Peak                     : 0.965942
    CRC32 hash (test run)    : DA7DE789
    CRC32 hash               : DA7DE789
    CRC32 hash (skip zero)   : 88F8C4D6
    AccurateRip v1 signature : 9ACE4892
    AccurateRip v2 signature : 3660FF85
        ->Track not present in AccurateRip database.
    Statistics
        Read error                           : 0
        Jitter error (maybe fixed)           : 0
        Retry sector count                   : 0
        Damaged sector count                 : 0

Track 08
    Filename : /Users/erwinfigueroa/Transmission/Uploaded/Audio Adrenaline - Kings & Queens (2013) [V0]/08 Seeker.mp3
               /Users/erwinfigueroa/Transmission/Uploaded/Audio Adrenaline - Kings & Queens (2013) [FLAC]/08 Seeker.flac

    Track gain               : -9.62 dB
    Peak                     : 0.965942
    CRC32 hash (test run)    : 47F60898
    CRC32 hash               : 47F60898
    CRC32 hash (skip zero)   : C7387C92
    AccurateRip v1 signature : 8C08E9E5
    AccurateRip v2 signature : B53104A3
        ->Track not present in AccurateRip database.
    Statistics
        Read error                           : 0
        Jitter error (maybe fixed)           : 0
        Retry sector count                   : 0
        Damaged sector count                 : 0

Track 09
    Filename : /Users/erwinfigueroa/Transmission/Uploaded/Audio Adrenaline - Kings & Queens (2013) [V0]/09 I Climb The Mountain.mp3
               /Users/erwinfigueroa/Transmission/Uploaded/Audio Adrenaline - Kings & Queens (2013) [FLAC]/09 I Climb The Mountain.flac

    Track gain               : -9.13 dB
    Peak                     : 0.965942
    CRC32 hash (test run)    : 1852CFD1
    CRC32 hash               : 1852CFD1
    CRC32 hash (skip zero)   : AE9C2FB3
    AccurateRip v1 signature : 052C62AE
    AccurateRip v2 signature : CDB30417
        ->Track not present in AccurateRip database.
    Statistics
        Read error                           : 0
        Jitter error (maybe fixed)           : 0
        Retry sector count                   : 0
        Damaged sector count                 : 0

Track 10
    Filename : /Users/erwinfigueroa/Transmission/Uploaded/Audio Adrenaline - Kings & Queens (2013) [V0]/10 The Answer.mp3
               /Users/erwinfigueroa/Transmission/Uploaded/Audio Adrenaline - Kings & Queens (2013) [FLAC]/10 The Answer.flac

    Track gain               : -9.27 dB
    Peak                     : 0.953918
    CRC32 hash (test run)    : D516A82E
    CRC32 hash               : D516A82E
    CRC32 hash (skip zero)   : 4460CEB1
    AccurateRip v1 signature : B2E0A76D
    AccurateRip v2 signature : 8DBA72F6
        ->Track not present in AccurateRip database.
    Statistics
        Read error                           : 0
        Jitter error (maybe fixed)           : 0
        Retry sector count                   : 0
        Damaged sector count                 : 0

No errors occurred

End of status report
Код:
Код:
TITLE "Kings & Queens"
PERFORMER "Audio Adrenaline"
REM GENRE "Religious"
REM DATE "2013"
REM DISCNUMBER 1
REM TOTALDISCS 1
REM DISCID 8208AE0A
REM REPLAYGAIN_ALBUM_GAIN -9.22 dB
REM REPLAYGAIN_ALBUM_PEAK 0.965942
FILE "01 He Moves You Move.flac" WAVE
  TRACK 01 AUDIO
    TITLE "He Moves You Move"
    SONGWRITER "Jason Walker/Mark Stuart"
    ISRC USM2C1300202
    REM REPLAYGAIN_TRACK_GAIN -9.36 dB
    REM REPLAYGAIN_TRACK_PEAK 0.938324
    INDEX 01 00:00:00
FILE "02 Kings & Queens.flac" WAVE
  TRACK 02 AUDIO
    TITLE "Kings & Queens"
    SONGWRITER "Juan Otero/Joel Parisien/Chuck Butler"
    ISRC USM2C1300201
    REM REPLAYGAIN_TRACK_GAIN -9.34 dB
    REM REPLAYGAIN_TRACK_PEAK 0.965942
    INDEX 01 00:00:00
FILE "03 Believer.flac" WAVE
  TRACK 03 AUDIO
    TITLE "Believer"
    SONGWRITER "Mark Stuart/Jason Walker/Kevin Max"
    ISRC USM2C1300203
    REM REPLAYGAIN_TRACK_GAIN -9.17 dB
    REM REPLAYGAIN_TRACK_PEAK 0.956940
    INDEX 01 00:00:00
FILE "04 King Of The Comebacks.flac" WAVE
  TRACK 04 AUDIO
    TITLE "King Of The Comebacks"
    SONGWRITER "Kevin Max/Mark Stuart/Seth Mosley"
    ISRC USM2C1300204
    REM REPLAYGAIN_TRACK_GAIN -9.76 dB
    REM REPLAYGAIN_TRACK_PEAK 0.942810
    INDEX 01 00:00:00
FILE "05 Change My Name.flac" WAVE
  TRACK 05 AUDIO
    TITLE "Change My Name"
    SONGWRITER "Kevin Max/Mark Stuart/Seth Mosley"
    ISRC USM2C1300205
    REM REPLAYGAIN_TRACK_GAIN -9.35 dB
    REM REPLAYGAIN_TRACK_PEAK 0.965942
    INDEX 01 00:00:00
FILE "06 20:17 (Raise The Banner).flac" WAVE
  TRACK 06 AUDIO
    TITLE "20:17 (Raise The Banner)"
    SONGWRITER "Jason Walker/Dominic Balli/Mark Stuart"
    ISRC USM2C1300206
    REM REPLAYGAIN_TRACK_GAIN -8.75 dB
    REM REPLAYGAIN_TRACK_PEAK 0.961182
    INDEX 01 00:00:00
FILE "07 Fire Never Sleeps.flac" WAVE
  TRACK 07 AUDIO
    TITLE "Fire Never Sleeps"
    SONGWRITER "Martin Smith/Nick Herbert"
    ISRC USM2C1300207
    REM REPLAYGAIN_TRACK_GAIN -8.65 dB
    REM REPLAYGAIN_TRACK_PEAK 0.965942
    INDEX 01 00:00:00
FILE "08 Seeker.flac" WAVE
  TRACK 08 AUDIO
    TITLE "Seeker"
    SONGWRITER "Kevin Max/Mark Stuart/Seth Mosley"
    ISRC USM2C1300208
    REM REPLAYGAIN_TRACK_GAIN -9.62 dB
    REM REPLAYGAIN_TRACK_PEAK 0.965942
    INDEX 01 00:00:00
FILE "09 I Climb The Mountain.flac" WAVE
  TRACK 09 AUDIO
    TITLE "I Climb The Mountain"
    SONGWRITER "Anthony Skinner/Ricky Jackson"
    ISRC USM2C1300209
    REM REPLAYGAIN_TRACK_GAIN -9.13 dB
    REM REPLAYGAIN_TRACK_PEAK 0.965942
    INDEX 01 00:00:00
FILE "10 The Answer.flac" WAVE
  TRACK 10 AUDIO
    TITLE "The Answer"
    SONGWRITER "Kevin Max/Seth Mosley"
    ISRC USM2C1300210
    REM REPLAYGAIN_TRACK_GAIN -9.27 dB
    REM REPLAYGAIN_TRACK_PEAK 0.953918
    INDEX 01 00:00:00
Код:
Код:
-----------------------

DON'T MODIFY THIS FILE

-----------------------

PERFORMER: auCDtect Task Manager, ver. 1.6.0 RC1 build 1.6.0.1
Copyright (c) 2008-2010 y-soft. All rights reserved
http:/y-soft.org

ANALYZER: auCDtect: CD records authenticity detector, version 0.8.2
Copyright (c) 2004 Oleg Berngardt. All rights reserved.
Copyright (c) 2004 Alexander Djourik. All rights reserved.

FILE: 10 The Answer.flac
  Size: 28249900 Hash: 01FD11B89CDED61EAD0E304B56CBC5A3 Accuracy: -m0
  Conclusion: CDDA 100%
  Signature: C4DD639FEB37D9B9C597AE0D13807EBA16F0DE54
FILE: 09 I Climb The Mountain.flac
  Size: 31174854 Hash: 540D9CD026380CFE378C8BBE7FFBADA3 Accuracy: -m0
  Conclusion: CDDA 100%
  Signature: BAE419D15B53F0EE69CEFFBB9F530DA68EB3C543
FILE: 08 Seeker.flac
  Size: 24145986 Hash: 34354DE21F9045CB6942FA3EACEF7B59 Accuracy: -m0
  Conclusion: CDDA 100%
  Signature: CA94B9BCD7A22D1A10593699BDCB06E9E1F97985
FILE: 07 Fire Never Sleeps.flac
  Size: 35445487 Hash: 6CA40885004E043BD6D1E674556395BC Accuracy: -m0
  Conclusion: CDDA 99%
  Signature: B9BB9ADF77DA2A5F3734D9AB1857085B8AB3821D
FILE: 06 20:17 (Raise The Banner).flac
  Size: 25903803 Hash: 1C4A7E8CE2C298A9AA8712C4CA1109A6 Accuracy: -m0
  Conclusion: CDDA 100%
  Signature: 3043C0B2BF9B577A90BBE43C85EE2328A1F7115A
FILE: 05 Change My Name.flac
  Size: 29687011 Hash: 56EF2A27FD64A0280905148D76C401F0 Accuracy: -m0
  Conclusion: CDDA 100%
  Signature: 50CDF63BAD7AC745D89FC49132BA1D576F75FCC2
FILE: 04 King Of The Comebacks.flac
  Size: 21818173 Hash: 9422B0EF24CE292775F04B036C09C1BF Accuracy: -m0
  Conclusion: CDDA 99%
  Signature: F67D70E869C134A3E4026FAABE4E76425545138C
FILE: 03 Believer.flac
  Size: 26725570 Hash: EDC8F0C4FCDDBD1F30F7F774C43D4214 Accuracy: -m0
  Conclusion: CDDA 100%
  Signature: 07370AC4748A1A1F59878F4A088343C045706C4C
FILE: 02 Kings & Queens.flac
  Size: 28687131 Hash: 6B721ACEDA9DC84C71FD104138B7FA5A Accuracy: -m0
  Conclusion: CDDA 100%
  Signature: 82AA9DBE1BF3B249A1C889B9125B65D808FE4D77
FILE: 01 He Moves You Move.flac
  Size: 23317631 Hash: 7984C2AA6C3F0A5BE77AD4FE615ED4F2 Accuracy: -m0
  Conclusion: CDDA 100%
  Signature: FF746B409BFBEE581D4E1B2E454BF2A815664360
Правила, инструкции, FAQ!!!
Торрент  Добавлен [16 мар 2014, 00:40] Скачать торрент Магнет ссылка
Скачать торрент
[ Размер 11.69 КБ / Просмотров 14 ]

Статус  
 
Размер  262.5 МБ
Приватный: Нет (DHT включён)
.torrent скачан  0
 


     Отправить личное сообщение
   
Страница 1 из 1
Показать сообщения за:  Поле сортировки  
Начать новую тему Ответить на тему


Сейчас этот форум просматривают: нет зарегистрированных пользователей и гости: 0


Вы не можете начинать темы
Вы не можете отвечать на сообщения
Вы не можете редактировать свои сообщения
Вы не можете удалять свои сообщения
Вы не можете добавлять вложения

Перейти:  
cron