Начать новую тему Ответить на тему
Статистика раздачи
Размер: 358.77 МБ | Добавлен: 16 мар 2014, 00:14 | Скачали: 0
Сидеров: 1  [0 байт/сек]    Личеров: 0  [0 байт/сек]
Пред. тема | След. тема 

Автор
Сообщение

СообщениеДобавлено: 16 мар 2014, 00:14 

Ответить с цитатой 

Attention Deficit - Attention Deficit (1998)

Год: 1998
Жанр: Progressive Rock
Продолжительность: 00:55:59

Кодек: WavPack
Битрейт: Lossless

Трек лист:
01. Atm [03:39]
02. An Exchange Of Niceties [02:34]
03. Scapula [05:13]
04. Snip [00:16]
05. It's Over, Johnny [03:30]
06. Tma [01:50]
07. Fly Pelican, Fly [11:58]
08. Febrile [02:51]
09. Mat [03:14]
10. Wrong [00:48]
11. The Girl From Enchilada [02:38]
12. Merton Hanks [03:31]
13. Ill Fated Conspiracy [02:51]
14. The Blood Room [03:20]
15. Festivus [00:11]
16. Khamsin [01:39]
17. Lydia [03:47]
18. Say Hello To My Little Friend [02:02]
REM GENRE "Progressive Rock"
REM DATE 1998
REM DISCID DC0D1F12
REM COMMENT "ExactAudioCopy v1.0b3"
PERFORMER "Attention Deficit"
TITLE "Attention Deficit"
FILE "Attention Deficit [1998] Attention Deficit.wv" WAVE
TRACK 01 AUDIO
TITLE "Atm"
PERFORMER "Attention Deficit"
INDEX 01 00:00:00
TRACK 02 AUDIO
TITLE "An Exchange Of Niceties"
PERFORMER "Attention Deficit"
INDEX 01 03:39:38
TRACK 03 AUDIO
TITLE "Scapula"
PERFORMER "Attention Deficit"
INDEX 01 06:14:03
TRACK 04 AUDIO
TITLE "Snip"
PERFORMER "Attention Deficit"
INDEX 01 11:27:19
TRACK 05 AUDIO
TITLE "It's Over, Johnny"
PERFORMER "Attention Deficit"
INDEX 01 11:43:30
TRACK 06 AUDIO
TITLE "Tma"
PERFORMER "Attention Deficit"
INDEX 01 15:13:52
TRACK 07 AUDIO
TITLE "Fly Pelican, Fly"
PERFORMER "Attention Deficit"
INDEX 01 17:04:07
TRACK 08 AUDIO
TITLE "Febrile"
PERFORMER "Attention Deficit"
INDEX 01 29:02:34
TRACK 09 AUDIO
TITLE "Mat"
PERFORMER "Attention Deficit"
INDEX 01 31:54:17
TRACK 10 AUDIO
TITLE "Wrong"
PERFORMER "Attention Deficit"
INDEX 01 35:08:37
TRACK 11 AUDIO
TITLE "The Girl From Enchilada"
PERFORMER "Attention Deficit"
INDEX 01 35:56:38
TRACK 12 AUDIO
TITLE "Merton Hanks"
PERFORMER "Attention Deficit"
INDEX 01 38:35:25
TRACK 13 AUDIO
TITLE "Ill Fated Conspiracy"
PERFORMER "Attention Deficit"
INDEX 01 42:06:68
TRACK 14 AUDIO
TITLE "The Blood Room"
PERFORMER "Attention Deficit"
INDEX 01 44:58:17
TRACK 15 AUDIO
TITLE "Festivus"
PERFORMER "Attention Deficit"
INDEX 01 48:18:24
TRACK 16 AUDIO
TITLE "Khamsin"
PERFORMER "Attention Deficit"
INDEX 01 48:29:49
TRACK 17 AUDIO
TITLE "Lydia"
PERFORMER "Attention Deficit"
INDEX 01 50:09:38
TRACK 18 AUDIO
TITLE "Say Hello To My Little Friend"
PERFORMER "Attention Deficit"
INDEX 01 53:57:26
Код:
Код:
Exact Audio Copy V1.0 beta 3 from 29. August 2011

EAC extraction logfile from 28. January 2013, 22:29

Attention Deficit / Attention Deficit

Used drive  : PIONEER DVD-RW  DVR-118L   Adapter: 2  ID: 0

Read mode               : Secure
Utilize accurate stream : Yes
Defeat audio cache      : Yes
Make use of C2 pointers : No

Read offset correction                      : 6
Overread into Lead-In and Lead-Out          : No
Fill up missing offset samples with silence : Yes
Delete leading and trailing silent blocks   : No
Null samples used in CRC calculations       : Yes
Used interface                              : Native Win32 interface for Win NT & 2000

Used output format              : User Defined Encoder
Selected bitrate                : 1024 kBit/s
Quality                         : High
Add ID3 tag                     : No
Command line compressor         : C:\Program Files\Exact Audio Copy\wavpack.exe
Additional command line options : -hm %source% %dest%

TOC of the extracted CD

     Track |   Start  |  Length  | Start sector | End sector
    ---------------------------------------------------------
        1  |  0:00.00 |  3:39.38 |         0    |    16462
        2  |  3:39.38 |  2:34.40 |     16463    |    28052
        3  |  6:14.03 |  5:13.16 |     28053    |    51543
        4  | 11:27.19 |  0:16.11 |     51544    |    52754
        5  | 11:43.30 |  3:30.22 |     52755    |    68526
        6  | 15:13.52 |  1:50.30 |     68527    |    76806
        7  | 17:04.07 | 11:58.27 |     76807    |   130683
        8  | 29:02.34 |  2:51.58 |    130684    |   143566
        9  | 31:54.17 |  3:14.20 |    143567    |   158136
       10  | 35:08.37 |  0:48.01 |    158137    |   161737
       11  | 35:56.38 |  2:38.62 |    161738    |   173649
       12  | 38:35.25 |  3:31.43 |    173650    |   189517
       13  | 42:06.68 |  2:51.24 |    189518    |   202366
       14  | 44:58.17 |  3:20.07 |    202367    |   217373
       15  | 48:18.24 |  0:11.25 |    217374    |   218223
       16  | 48:29.49 |  1:39.64 |    218224    |   225712
       17  | 50:09.38 |  3:47.63 |    225713    |   242800
       18  | 53:57.26 |  2:02.29 |    242801    |   251979

Range status and errors

Selected range

     Filename F:\CD\Attention Deficit [1998] Attention Deficit\Attention Deficit - Attention Deficit.wav

     Peak level 97.9 %
     Extraction speed 1.8 X
     Range quality 100.0 %
     Test CRC FAAC07EC
     Copy CRC FAAC07EC
     Copy OK

No errors occurred

AccurateRip summary

Track  1  cannot be verified as accurate (confidence 14)  [0159A79B], AccurateRip returned [91016724]  (AR v2)
Track  2  cannot be verified as accurate (confidence 14)  [85F24A4D], AccurateRip returned [D9551A10]  (AR v2)
Track  3  cannot be verified as accurate (confidence 14)  [7A8D9DE4], AccurateRip returned [037555ED]  (AR v2)
Track  4  cannot be verified as accurate (confidence 14)  [78F4066B], AccurateRip returned [2D21BAB0]  (AR v2)
Track  5  cannot be verified as accurate (confidence 14)  [1CF94BA1], AccurateRip returned [7B824E2B]  (AR v2)
Track  6  cannot be verified as accurate (confidence 14)  [9373DD6F], AccurateRip returned [C4CFAD9B]  (AR v2)
Track  7  cannot be verified as accurate (confidence 14)  [6235B154], AccurateRip returned [BE693654]  (AR v2)
Track  8  cannot be verified as accurate (confidence 14)  [CCC1C25E], AccurateRip returned [44F9A685]  (AR v2)
Track  9  cannot be verified as accurate (confidence 14)  [FAC70378], AccurateRip returned [DAD86839]  (AR v2)
Track 10  cannot be verified as accurate (confidence 13)  [8C8172FB], AccurateRip returned [F564A03E]  (AR v2)
Track 11  cannot be verified as accurate (confidence 14)  [C69646D5], AccurateRip returned [AC3C52C4]  (AR v2)
Track 12  cannot be verified as accurate (confidence 13)  [7B49D382], AccurateRip returned [103F770A]  (AR v2)
Track 13  cannot be verified as accurate (confidence 14)  [0FEDF2F1], AccurateRip returned [6977B65E]  (AR v2)
Track 14  cannot be verified as accurate (confidence 14)  [AE4652FE], AccurateRip returned [25A4F111]  (AR v2)
Track 15  cannot be verified as accurate (confidence 14)  [06A3B703], AccurateRip returned [CFD0B18B]  (AR v2)
Track 16  cannot be verified as accurate (confidence 14)  [27BF6D57], AccurateRip returned [7F5DA37E]  (AR v2)
Track 17  cannot be verified as accurate (confidence 14)  [A889F71B], AccurateRip returned [8C4A43B9]  (AR v2)
Track 18  cannot be verified as accurate (confidence 13)  [CC69CCF8], AccurateRip returned [31D3B1AE]  (AR v2)

No tracks could be verified as accurate
You may have a different pressing from the one(s) in the database

End of status report

---- CUETools DB Plugin V2.1.3

[CTDB TOCID: vnE8rv83Cj1v6rYp1A0mUNFg00M-] found, Submit result: already submitted
[5473674b] (19/20) Accurately ripped
[1e590183] (01/20) No match

==== Log checksum 48CC08631A05E2EACBD50FFC3B4FC7179CC2925251155DFE8CD101F0779E69DE ====
Код:
Код:
DON'T MODIFY THIS FILE

-----------------------

PERFORMER: auCDtect Task Manager, ver. 1.5.1RC6 build 1.5.1.7
Copyright (c) 2008-2010 y-soft. All rights reserved
http:/y-soft.org

ANALYZER: auCDtect: CD records authenticity detector, version 0.8.2
Copyright (c) 2004 Oleg Berngardt. All rights reserved.
Copyright (c) 2004 Alexander Djourik. All rights reserved.

FILE: Attention Deficit - Attention Deficit.wav
  Size: 592657004 Hash: 5F5E34B144104833B8D84A61A14E9C86 Accuracy: -m0
  Conclusion: CDDA 100%
  Signature: F75E256B88B582D99C544AC3734BB6928EE14B11
Правила, инструкции, FAQ!!!
Торрент  Добавлен [16 мар 2014, 00:14] Скачать торрент Магнет ссылка
Скачать торрент
[ Размер 14.85 КБ / Просмотров 23 ]

Статус  
 
Размер  358.77 МБ
Приватный: Нет (DHT включён)
.torrent скачан  0
 


     Отправить личное сообщение
   
Страница 1 из 1
Показать сообщения за:  Поле сортировки  
Начать новую тему Ответить на тему


Сейчас этот форум просматривают: нет зарегистрированных пользователей и гости: 0


Вы не можете начинать темы
Вы не можете отвечать на сообщения
Вы не можете редактировать свои сообщения
Вы не можете удалять свои сообщения
Вы не можете добавлять вложения

Перейти:  
cron