Начать новую тему Ответить на тему
Статистика раздачи
Размер: 1.31 ГБ | Добавлен: 16 мар 2014, 00:53 | Скачали: 0
Сидеров: 1  [0 байт/сек]    Личеров: 2  [0 байт/сек]
Пред. тема | След. тема 

Автор
Сообщение

СообщениеДобавлено: 16 мар 2014, 00:53 

Ответить с цитатой 


Attack Attack!
- Дискография





Год выпуска: 2008-2012
Жанр: Post-Hardcore | Electronic
Продолжительность: 02:40:56
Тип издания: Дискография
Страна: США



Треклист:

01. Hot Grills and High Tops
02. Stick Stickly
03. Bro, Ashley's Here
04. Shred, White & Blue
05. Party Foul
06. What Happens If I Can't Check My MySpace When We Get There?
07. Interlude
08. The People's Elbow
09. Kickin' Wing, Animal Doctor
10. Dr. Shavargo Pt.3
11. Catfish Soup
12. Outro

Продолжительность: 00:30:24

Код:
Код:
Exact Audio Copy V0.99 prebeta 3 from 28. July 2007

EAC extraction logfile from 24. December 2008, 11:03

Attack Attack! / Someday Came Suddenly

Used drive  : _NEC    DVD_RW ND-3550A   Adapter: 4  ID: 0

Read mode               : Secure
Utilize accurate stream : Yes
Defeat audio cache      : Yes
Make use of C2 pointers : No

Read offset correction                      : 48
Overread into Lead-In and Lead-Out          : No
Fill up missing offset samples with silence : Yes
Delete leading and trailing silent blocks   : No
Null samples used in CRC calculations       : Yes
Used interface                              : Installed external ASPI interface
Gap handling                                : Appended to previous track

Used output format              : User Defined Encoder
Selected bitrate                : 320 kBit/s
Quality                         : High
Add ID3 tag                     : No
Command line compressor         : C:\Program Files\Exact Audio Copy\flac-1.1.4-win\bin\flac.exe
Additional command line options : -8 -A tukey(0.25) -A gauss(0.1875) -b 4096 -V -T "artist=%a" -T "title=%t" -T "album=%g" -T "date=%y" -T "tracknumber=%n" -T "genre=%m" %s --sector-align

TOC of the extracted CD

     Track |   Start  |  Length  | Start sector | End sector
    ---------------------------------------------------------
        1  |  0:00.00 |  0:41.44 |         0    |     3118
        2  |  0:41.44 |  3:22.68 |      3119    |    18336
        3  |  4:04.37 |  3:17.55 |     18337    |    33166
        4  |  7:22.17 |  2:35.32 |     33167    |    44823
        5  |  9:57.49 |  2:36.20 |     44824    |    56543
        6  | 12:33.69 |  2:35.41 |     56544    |    68209
        7  | 15:09.35 |  2:06.47 |     68210    |    77706
        8  | 17:16.07 |  2:37.00 |     77707    |    89481
        9  | 19:53.07 |  2:27.73 |     89482    |   100579
       10  | 22:21.05 |  3:41.71 |    100580    |   117225
       11  | 26:03.01 |  2:57.74 |    117226    |   130574
       12  | 29:01.00 |  1:23.73 |    130575    |   136872

Track  1

     Filename C:\Documents and Settings\Anthony\My Documents\My Music\What ULs\FLAC\Attack Attack! - Someday Came Suddenly\01 - Hot Grills and High Tops.wav

     Pre-gap length  0:00:02.00

     Peak level 97.7 %
     Track quality 100.0 %
     Test CRC FEBC7A87
     Copy CRC FEBC7A87
     Track not present in AccurateRip database
     Copy OK

Track  2

     Filename C:\Documents and Settings\Anthony\My Documents\My Music\What ULs\FLAC\Attack Attack! - Someday Came Suddenly\02 - Stick Stickly.wav

     Peak level 97.7 %
     Track quality 100.0 %
     Test CRC 6B1A2EB7
     Copy CRC 6B1A2EB7
     Track not present in AccurateRip database
     Copy OK

Track  3

     Filename C:\Documents and Settings\Anthony\My Documents\My Music\What ULs\FLAC\Attack Attack! - Someday Came Suddenly\03 - Bro, Ashley's Here.wav

     Peak level 97.7 %
     Track quality 100.0 %
     Test CRC E0272AB6
     Copy CRC E0272AB6
     Track not present in AccurateRip database
     Copy OK

Track  4

     Filename C:\Documents and Settings\Anthony\My Documents\My Music\What ULs\FLAC\Attack Attack! - Someday Came Suddenly\04 - Shred, White & Blue.wav

     Peak level 97.7 %
     Track quality 100.0 %
     Test CRC 70F4C722
     Copy CRC 70F4C722
     Track not present in AccurateRip database
     Copy OK

Track  5

     Filename C:\Documents and Settings\Anthony\My Documents\My Music\What ULs\FLAC\Attack Attack! - Someday Came Suddenly\05 - Party Foul.wav

     Peak level 97.7 %
     Track quality 100.0 %
     Test CRC 68E8B377
     Copy CRC 68E8B377
     Track not present in AccurateRip database
     Copy OK

Track  6

     Filename C:\Documents and Settings\Anthony\My Documents\My Music\What ULs\FLAC\Attack Attack! - Someday Came Suddenly\06 - What Happens If I Can't Check My MySpace When We Get There .wav

     Peak level 97.7 %
     Track quality 100.0 %
     Test CRC 5FDFC862
     Copy CRC 5FDFC862
     Track not present in AccurateRip database
     Copy OK

Track  7

     Filename C:\Documents and Settings\Anthony\My Documents\My Music\What ULs\FLAC\Attack Attack! - Someday Came Suddenly\07 - Interlude.wav

     Peak level 97.3 %
     Track quality 100.0 %
     Test CRC ED086F7E
     Copy CRC ED086F7E
     Track not present in AccurateRip database
     Copy OK

Track  8

     Filename C:\Documents and Settings\Anthony\My Documents\My Music\What ULs\FLAC\Attack Attack! - Someday Came Suddenly\08 - The People's Elbow.wav

     Peak level 97.7 %
     Track quality 100.0 %
     Test CRC D9D00226
     Copy CRC D9D00226
     Track not present in AccurateRip database
     Copy OK

Track  9

     Filename C:\Documents and Settings\Anthony\My Documents\My Music\What ULs\FLAC\Attack Attack! - Someday Came Suddenly\09 - Kickin' Wing, Animal Doctor.wav

     Peak level 97.7 %
     Track quality 100.0 %
     Test CRC 139EEACA
     Copy CRC 139EEACA
     Track not present in AccurateRip database
     Copy OK

Track 10

     Filename C:\Documents and Settings\Anthony\My Documents\My Music\What ULs\FLAC\Attack Attack! - Someday Came Suddenly\10 - Dr. Shavargo Pt.3.wav

     Peak level 97.7 %
     Track quality 100.0 %
     Test CRC 70BD26E9
     Copy CRC 70BD26E9
     Track not present in AccurateRip database
     Copy OK

Track 11

     Filename C:\Documents and Settings\Anthony\My Documents\My Music\What ULs\FLAC\Attack Attack! - Someday Came Suddenly\11 - Catfish Soup.wav

     Peak level 97.7 %
     Track quality 99.9 %
     Test CRC 7AF1DA07
     Copy CRC 7AF1DA07
     Track not present in AccurateRip database
     Copy OK

Track 12

     Filename C:\Documents and Settings\Anthony\My Documents\My Music\What ULs\FLAC\Attack Attack! - Someday Came Suddenly\12 - Outro.wav

     Peak level 77.5 %
     Track quality 100.0 %
     Test CRC 39736CC6
     Copy CRC 39736CC6
     Track not present in AccurateRip database
     Copy OK

None of the tracks are present in the AccurateRip database

No errors occurred

End of status report

Код:
Код:
-----------------------

DON'T MODIFY THIS FILE

-----------------------

PERFORMER: auCDtect Task Manager, ver. 1.5.1RC6 build 1.5.1.7
Copyright (c) 2008-2010 y-soft. All rights reserved
http:/y-soft.org

ANALYZER: auCDtect: CD records authenticity detector, version 0.8.2
Copyright (c) 2004 Oleg Berngardt. All rights reserved.
Copyright (c) 2004 Alexander Djourik. All rights reserved.

FILE: 12. Attack Attack! - Outro.flac
  Size: 7346997 Hash: 462DC9E78FD17516B2A8D438DA1BDEF8 Accuracy: -m0
  Conclusion: CDDA 100%
  Signature: 63EE8E60A170414C7583C1DF854E2E68D9FFEEA8
FILE: 11. Attack Attack! - Catfish Soup.flac
  Size: 25617403 Hash: 4D2C2F85A4EA39F111C64ABE76D933D4 Accuracy: -m0
  Conclusion: CDDA 100%
  Signature: F8421F4030AFD490697C14F69741166372989CC1
FILE: 10. Attack Attack! - Dr. Shavargo Pt.3.flac
  Size: 31916747 Hash: 427A19289BB8EBFF42800E1B7A26D611 Accuracy: -m0
  Conclusion: CDDA 99%
  Signature: 048BDBC38DFCF2CE231BC329075DE7367527F3F6
FILE: 09. Attack Attack! - Kickin' Wing, Animal Doctor.flac
  Size: 22197519 Hash: 84F35243A1D1BAC4E2C664143E735619 Accuracy: -m0
  Conclusion: CDDA 99%
  Signature: EE8074A09D435FAA2CB7B3C4DAB73E71C2B2BE15
FILE: 08. Attack Attack! - The People's Elbow.flac
  Size: 23557145 Hash: A516F309E3B19ACEF264ECB37B2C404E Accuracy: -m0
  Conclusion: CDDA 100%
  Signature: 864E61E43A4DB3CF17724B444CFF447146D9DBDE
FILE: 07. Attack Attack! - Interlude.flac
  Size: 18611922 Hash: B4F049CD9EEECA9F747D786B0DBDEC88 Accuracy: -m0
  Conclusion: CDDA 100%
  Signature: 25EDB175A20C8FCAE9A9AE8034341F797D32033C
FILE: 06. Attack Attack! - What Happens If I Can't Check My MySpace When We Get There_.flac
  Size: 23714091 Hash: 4A980C712E33A47A03BFFC97FCC965B7 Accuracy: -m0
  Conclusion: CDDA 100%
  Signature: 7895AB0BFC8B7F53BB6A76C5659696BF72E7CAFC
FILE: 05. Attack Attack! - Party Foul.flac
  Size: 23508922 Hash: C5C264E9CCD54445AEB1DA295570CE41 Accuracy: -m0
  Conclusion: CDDA 100%
  Signature: A4F00A20A1B4B9B20E3552F5FDC9D8B9769D4457
FILE: 04. Attack Attack! - Shred, White & Blue.flac
  Size: 22966304 Hash: D565C44A161C16D63E8C37FE0066998D Accuracy: -m0
  Conclusion: CDDA 100%
  Signature: 72CECF4AFD4E15113A97DB5074696D70EC855091
FILE: 03. Attack Attack! - Bro, Ashley's Here.flac
  Size: 28135200 Hash: A878F47D84236E34D928025DD5D2D799 Accuracy: -m0
  Conclusion: CDDA 100%
  Signature: 898D97B85FC76F3B36B5044F9595C181097A9B43
FILE: 02. Attack Attack! - Stick Stickly.flac
  Size: 30074980 Hash: FCE1DBEAA76EFD42D069A91EA800BD09 Accuracy: -m0
  Conclusion: CDDA 100%
  Signature: 1A404CDC15E99A6E641C945F2EEB4F3A8A5148D6
FILE: 01. Attack Attack! - Hot Grills and High Tops.flac
  Size: 6857313 Hash: 2428E53579C5583886B63BE93037B99C Accuracy: -m0
  Conclusion: CDDA 100%
  Signature: 7143418F0959CD6397ACB50D593BDBCF1EA9C393



#777Треклист:

01. Sexual Man Chocolate
02. Renob, Nevada
03. I Swear I'll Change
04. Shut Your Mouth
05. A For Andrew
06. Smokahontas
07. AC-130
08. Fumbles O'Brian
09. Turbo Swag
10. Lonely

Продолжительность: 00:34:11


Код:
Код:
Exact Audio Copy V0.99 prebeta 5 from 4. May 2009

EAC extraction logfile from 3. June 2010, 15:45

Attack Attack! / Attack Attack!

Used drive  : ATAPI   iHAS120   6   Adapter: 3  ID: 0

Read mode               : Secure
Utilize accurate stream : Yes
Defeat audio cache      : Yes
Make use of C2 pointers : No

Read offset correction                      : 6
Overread into Lead-In and Lead-Out          : No
Fill up missing offset samples with silence : Yes
Delete leading and trailing silent blocks   : No
Null samples used in CRC calculations       : Yes
Used interface                              : Native Win32 interface for Win NT & 2000
Gap handling                                : Appended to previous track

Used output format              : User Defined Encoder
Selected bitrate                : 768 kBit/s
Quality                         : High
Add ID3 tag                     : No
Command line compressor         : C:\Program Files\Exact Audio Copy\Flac\flac.exe
Additional command line options : -8 -A tukey(0.25) -A gauss(0.1875) -b 4096 -V -T "artist=%a" -T "title=%t" -T "album=%g" -T "date=%y" -T "tracknumber=%n" -T "genre=%m" %s --sector-align

TOC of the extracted CD

     Track |   Start  |  Length  | Start sector | End sector
    ---------------------------------------------------------
        1  |  0:00.00 |  3:18.18 |         0    |    14867
        2  |  3:18.18 |  3:14.64 |     14868    |    29481
        3  |  6:33.07 |  3:40.18 |     29482    |    45999
        4  | 10:13.25 |  2:44.48 |     46000    |    58347
        5  | 12:57.73 |  3:23.00 |     58348    |    73572
        6  | 16:20.73 |  3:54.37 |     73573    |    91159
        7  | 20:15.35 |  1:47.55 |     91160    |    99239
        8  | 22:03.15 |  2:57.35 |     99240    |   112549
        9  | 25:00.50 |  3:33.07 |    112550    |   128531
       10  | 28:33.57 |  5:37.70 |    128532    |   153876

Track  1

     Filename C:\Users\Bryan\Desktop\AA! FLAC\01 Sexual Man Chocolate.wav

     Pre-gap length  0:00:02.00

     Peak level 97.8 %
     Track quality 99.9 %
     Test CRC 761AFFD6
     Copy CRC 761AFFD6
     Track not present in AccurateRip database
     Copy OK

Track  2

     Filename C:\Users\Bryan\Desktop\AA! FLAC\02 Renob, Nevada.wav

     Peak level 100.0 %
     Track quality 100.0 %
     Test CRC 94A52C17
     Copy CRC 94A52C17
     Track not present in AccurateRip database
     Copy OK

Track  3

     Filename C:\Users\Bryan\Desktop\AA! FLAC\03 I Swear I'll Change.wav

     Peak level 100.0 %
     Track quality 100.0 %
     Test CRC 6D6AE84C
     Copy CRC 6D6AE84C
     Track not present in AccurateRip database
     Copy OK

Track  4

     Filename C:\Users\Bryan\Desktop\AA! FLAC\04 Shut Your Mouth.wav

     Peak level 100.0 %
     Track quality 100.0 %
     Test CRC B2382CCF
     Copy CRC B2382CCF
     Track not present in AccurateRip database
     Copy OK

Track  5

     Filename C:\Users\Bryan\Desktop\AA! FLAC\05 A For Andrew.wav

     Peak level 100.0 %
     Track quality 100.0 %
     Test CRC F148F4F9
     Copy CRC F148F4F9
     Track not present in AccurateRip database
     Copy OK

Track  6

     Filename C:\Users\Bryan\Desktop\AA! FLAC\06 Smokahontas.wav

     Peak level 100.0 %
     Track quality 100.0 %
     Test CRC D1617BDD
     Copy CRC D1617BDD
     Track not present in AccurateRip database
     Copy OK

Track  7

     Filename C:\Users\Bryan\Desktop\AA! FLAC\07 AC-130.wav

     Peak level 99.6 %
     Track quality 100.0 %
     Test CRC 830F9823
     Copy CRC 830F9823
     Track not present in AccurateRip database
     Copy OK

Track  8

     Filename C:\Users\Bryan\Desktop\AA! FLAC\08 Fumbles O'Brian.wav

     Peak level 100.0 %
     Track quality 100.0 %
     Test CRC 24AB81F8
     Copy CRC 24AB81F8
     Track not present in AccurateRip database
     Copy OK

Track  9

     Filename C:\Users\Bryan\Desktop\AA! FLAC\09 Turbo Swag.wav

     Peak level 100.0 %
     Track quality 100.0 %
     Test CRC 212745F2
     Copy CRC 212745F2
     Track not present in AccurateRip database
     Copy OK

Track 10

     Filename C:\Users\Bryan\Desktop\AA! FLAC\10 Lonely.wav

     Peak level 98.0 %
     Track quality 100.0 %
     Test CRC 7E77A2A0
     Copy CRC 7E77A2A0
     Track not present in AccurateRip database
     Copy OK

None of the tracks are present in the AccurateRip database

No errors occurred

End of status report

Код:
Код:
-----------------------

DON'T MODIFY THIS FILE

-----------------------

PERFORMER: auCDtect Task Manager, ver. 1.5.1RC6 build 1.5.1.7
Copyright (c) 2008-2010 y-soft. All rights reserved
http:/y-soft.org

ANALYZER: auCDtect: CD records authenticity detector, version 0.8.2
Copyright (c) 2004 Oleg Berngardt. All rights reserved.
Copyright (c) 2004 Alexander Djourik. All rights reserved.

FILE: 10. Attack Attack! - Lonely.flac
  Size: 45596997 Hash: D418664A1230D889BB767A4180CE4FF1 Accuracy: -m0
  Conclusion: CDDA 100%
  Signature: 9DA331A4F3F2B7C1B58F0E35DEC9E83866D3FA15
FILE: 09. Attack Attack! - Turbo Swag.flac
  Size: 30244496 Hash: 14FF194E14ACA2BA1A48AF368C536B91 Accuracy: -m0
  Conclusion: CDDA 100%
  Signature: 05ECD7BCA5DF35733A3ED0A5DAB0F4210E737C05
FILE: 08. Attack Attack! - Fumbles O'Brian.flac
  Size: 26651722 Hash: 1A1250F75811F002860FAF9EF22F9B91 Accuracy: -m0
  Conclusion: CDDA 100%
  Signature: 7268339C5F135A3BF0DCB635BC677CB3480FC76B
FILE: 07. Attack Attack! - AC-130.flac
  Size: 15838272 Hash: C01A8CFBF2A03F88214BD29243984E74 Accuracy: -m0
  Conclusion: CDDA 100%
  Signature: AEBF9DE48F0EF70C51DBCE392FD179457CCF0E43
FILE: 06. Attack Attack! - Smokahontas.flac
  Size: 33882396 Hash: BB630EB30E418E552576B0CD95E624E5 Accuracy: -m0
  Conclusion: CDDA 100%
  Signature: 54CB061C78AE280A30566F8AED23F0D5791FD970
FILE: 05. Attack Attack! - A For Andrew.flac
  Size: 30307278 Hash: 1A6FEA9D2A1787170920E722785275D2 Accuracy: -m0
  Conclusion: CDDA 100%
  Signature: 6A26E24D968AE8A1F8563723BC093BDFCCCBB20F
FILE: 04. Attack Attack! - Shut Your Mouth.flac
  Size: 24565732 Hash: 50F78DED002FA6617142D8DFF5308804 Accuracy: -m0
  Conclusion: CDDA 100%
  Signature: 352E07E52BB9D6BE97F021F013AE9E48B1CFA652
FILE: 03. Attack Attack! - I Swear I'll Change.flac
  Size: 30457709 Hash: EC5898E0E1609CDE2B3988D3F0BD1BC2 Accuracy: -m0
  Conclusion: CDDA 100%
  Signature: 14BCD933D62667A8F3078BE208A8143B06B8D045
FILE: 02. Attack Attack! - Renob, Nevada.flac
  Size: 28198714 Hash: 85643F48985E8428C961924CBAA32F05 Accuracy: -m0
  Conclusion: CDDA 100%
  Signature: 8441B0937D4D8FB13C219D630E5248B5C237CF9B
FILE: 01. Attack Attack! - Sexual Man Chocolate.flac
  Size: 27800317 Hash: D4C1E9D1D57BB4605B83DBB34D5DEF45 Accuracy: -m0
  Conclusion: CDDA 100%
  Signature: D7D199309FFA78D38B55AD81527C14275D3EE152



#777Треклист:

01. Last Breath
02. Pick a Side
03. Criminal
04. All Alone
05. Sexual Man Chocolate
06. Renob, Nevada
07. "I Swear I'll Change"
08. Shut Your Mouth
09. A for Andrew
10. Smokahontas
11. AC-130
12. Fumbles O'Brian
13. Turbo Swag
14. Lonely
15. Sexual Man Chocolate (remix)
16. AC-130 (remix)
17. "I Swear I'll Change" (acoustic)
18. Turbo Swag (acoustic)

Продолжительность: 00:59:51


Код:
Код:
X Lossless Decoder version 20110703 (135.1)

XLD extraction logfile from 2011-07-23 20:43:33 +0000

Attack Attack! / Attack Attack!

Used drive : MATSHITA DVD-R   UJ-898 (revision HC10)

Ripper mode             : XLD Secure Ripper
Disable audio cache     : OK for the drive with a cache less than 1375KiB
Make use of C2 pointers : NO
Read offset correction  : 102
Max retry count         : 100
Gap status              : Analyzed, Appended

TOC of the extracted CD
     Track |   Start  |  Length  | Start sector | End sector
    ---------------------------------------------------------
        1  | 00:00:00 | 03:42:54 |         0    |    16703
        2  | 03:42:54 | 02:41:31 |     16704    |    28809
        3  | 06:24:10 | 03:20:58 |     28810    |    43867
        4  | 09:44:68 | 04:01:55 |     43868    |    61997
        5  | 13:46:48 | 03:18:18 |     61998    |    76865
        6  | 17:04:66 | 03:14:64 |     76866    |    91479
        7  | 20:19:55 | 03:40:18 |     91480    |   107997
        8  | 23:59:73 | 02:44:48 |    107998    |   120345
        9  | 26:44:46 | 03:23:00 |    120346    |   135570
       10  | 30:07:46 | 03:54:37 |    135571    |   153157
       11  | 34:02:08 | 01:47:55 |    153158    |   161237
       12  | 35:49:63 | 02:57:35 |    161238    |   174547
       13  | 38:47:23 | 03:33:07 |    174548    |   190529
       14  | 42:20:30 | 05:37:70 |    190530    |   215874
       15  | 47:58:25 | 02:53:61 |    215875    |   228910
       16  | 50:52:11 | 02:44:48 |    228911    |   241258
       17  | 53:36:59 | 03:08:27 |    241259    |   255385
       18  | 56:45:11 | 03:06:33 |    255386    |   269368

AccurateRip Summary
    Disc not found in AccurateRip DB.

All Tracks
    Album gain             : -10.44 dB
    Peak                   : 1.000000
    Statistics
        Read error                           : 0
        Jitter error (maybe fixed)           : 0
        Retry sector count                   : 0
        Damaged sector count                 : 0

Track 01
    Filename : /Volumes/PINEAPPLE ARMY/Music/Attack Attack!/Attack Attack!/01 Last Breath.flac
    Pre-gap length : 00:02:00

    Track gain             : -7.91 dB
    Peak                   : 0.994293
    CRC32 hash (test run)  : AC6E2953
    CRC32 hash             : AC6E2953
    CRC32 hash (skip zero) : 6530A494
    AccurateRip signature  : 881C6CDA
        ->Track not present in AccurateRip database.
    Statistics
        Read error                           : 0
        Jitter error (maybe fixed)           : 0
        Retry sector count                   : 0
        Damaged sector count                 : 0

Track 02
    Filename : /Volumes/PINEAPPLE ARMY/Music/Attack Attack!/Attack Attack!/02 Pick a Side.flac

    Track gain             : -10.25 dB
    Peak                   : 0.968506
    CRC32 hash (test run)  : 0E385557
    CRC32 hash             : 0E385557
    CRC32 hash (skip zero) : 47B06701
    AccurateRip signature  : A1BFE131
        ->Track not present in AccurateRip database.
    Statistics
        Read error                           : 0
        Jitter error (maybe fixed)           : 0
        Retry sector count                   : 0
        Damaged sector count                 : 0

Track 03
    Filename : /Volumes/PINEAPPLE ARMY/Music/Attack Attack!/Attack Attack!/03 Criminal.flac

    Track gain             : -10.05 dB
    Peak                   : 0.994324
    CRC32 hash (test run)  : 383CF75C
    CRC32 hash             : 383CF75C
    CRC32 hash (skip zero) : D48D9A5F
    AccurateRip signature  : AEA31332
        ->Track not present in AccurateRip database.
    Statistics
        Read error                           : 0
        Jitter error (maybe fixed)           : 0
        Retry sector count                   : 0
        Damaged sector count                 : 0

Track 04
    Filename : /Volumes/PINEAPPLE ARMY/Music/Attack Attack!/Attack Attack!/04 All Alone.flac

    Track gain             : -11.53 dB
    Peak                   : 0.968536
    CRC32 hash (test run)  : 2BD08543
    CRC32 hash             : 2BD08543
    CRC32 hash (skip zero) : 44C87278
    AccurateRip signature  : FFB4F704
        ->Track not present in AccurateRip database.
    Statistics
        Read error                           : 0
        Jitter error (maybe fixed)           : 0
        Retry sector count                   : 0
        Damaged sector count                 : 0

Track 05
    Filename : /Volumes/PINEAPPLE ARMY/Music/Attack Attack!/Attack Attack!/05 Sexual Man Chocolate.flac

    Track gain             : -9.63 dB
    Peak                   : 0.978424
    CRC32 hash (test run)  : 41BEA360
    CRC32 hash             : 41BEA360
    CRC32 hash (skip zero) : 53638DA3
    AccurateRip signature  : 0B8F56DE
        ->Track not present in AccurateRip database.
    Statistics
        Read error                           : 0
        Jitter error (maybe fixed)           : 0
        Retry sector count                   : 0
        Damaged sector count                 : 0

Track 06
    Filename : /Volumes/PINEAPPLE ARMY/Music/Attack Attack!/Attack Attack!/06 Renob, Nevada.flac

    Track gain             : -10.17 dB
    Peak                   : 1.000000
    CRC32 hash (test run)  : A3128E6D
    CRC32 hash             : A3128E6D
    CRC32 hash (skip zero) : C2AB2D2E
    AccurateRip signature  : FACF3FA4
        ->Track not present in AccurateRip database.
    Statistics
        Read error                           : 0
        Jitter error (maybe fixed)           : 0
        Retry sector count                   : 0
        Damaged sector count                 : 0

Track 07
    Filename : /Volumes/PINEAPPLE ARMY/Music/Attack Attack!/Attack Attack!/07 "I Swear I'll Change".flac

    Track gain             : -10.97 dB
    Peak                   : 1.000000
    CRC32 hash (test run)  : A569EB63
    CRC32 hash             : A569EB63
    CRC32 hash (skip zero) : E366D85D
    AccurateRip signature  : D9417C2D
        ->Track not present in AccurateRip database.
    Statistics
        Read error                           : 0
        Jitter error (maybe fixed)           : 0
        Retry sector count                   : 0
        Damaged sector count                 : 0

Track 08
    Filename : /Volumes/PINEAPPLE ARMY/Music/Attack Attack!/Attack Attack!/08 Shut Your Mouth.flac

    Track gain             : -9.45 dB
    Peak                   : 1.000000
    CRC32 hash (test run)  : 1430E7EC
    CRC32 hash             : 1430E7EC
    CRC32 hash (skip zero) : 94C42165
    AccurateRip signature  : 2B19AD66
        ->Track not present in AccurateRip database.
    Statistics
        Read error                           : 0
        Jitter error (maybe fixed)           : 0
        Retry sector count                   : 0
        Damaged sector count                 : 0

Track 09
    Filename : /Volumes/PINEAPPLE ARMY/Music/Attack Attack!/Attack Attack!/09 A for Andrew.flac

    Track gain             : -10.66 dB
    Peak                   : 1.000000
    CRC32 hash (test run)  : 2F637268
    CRC32 hash             : 2F637268
    CRC32 hash (skip zero) : AEA454C1
    AccurateRip signature  : 564FDEB1
        ->Track not present in AccurateRip database.
    Statistics
        Read error                           : 0
        Jitter error (maybe fixed)           : 0
        Retry sector count                   : 0
        Damaged sector count                 : 0

Track 10
    Filename : /Volumes/PINEAPPLE ARMY/Music/Attack Attack!/Attack Attack!/10 Smokahontas.flac

    Track gain             : -10.02 dB
    Peak                   : 1.000000
    CRC32 hash (test run)  : 0D35B2C3
    CRC32 hash             : 0D35B2C3
    CRC32 hash (skip zero) : A41A13C3
    AccurateRip signature  : D8C5ED53
        ->Track not present in AccurateRip database.
    Statistics
        Read error                           : 0
        Jitter error (maybe fixed)           : 0
        Retry sector count                   : 0
        Damaged sector count                 : 0

Track 11
    Filename : /Volumes/PINEAPPLE ARMY/Music/Attack Attack!/Attack Attack!/11 AC-130.flac

    Track gain             : -8.42 dB
    Peak                   : 0.996338
    CRC32 hash (test run)  : 6B259F87
    CRC32 hash             : 6B259F87
    CRC32 hash (skip zero) : 440B1C76
    AccurateRip signature  : 12DD5784
        ->Track not present in AccurateRip database.
    Statistics
        Read error                           : 0
        Jitter error (maybe fixed)           : 0
        Retry sector count                   : 0
        Damaged sector count                 : 0

Track 12
    Filename : /Volumes/PINEAPPLE ARMY/Music/Attack Attack!/Attack Attack!/12 Fumbles O'Brian.flac

    Track gain             : -10.00 dB
    Peak                   : 1.000000
    CRC32 hash (test run)  : 78B4CB90
    CRC32 hash             : 78B4CB90
    CRC32 hash (skip zero) : B2D0F06D
    AccurateRip signature  : 864F124E
        ->Track not present in AccurateRip database.
    Statistics
        Read error                           : 0
        Jitter error (maybe fixed)           : 0
        Retry sector count                   : 0
        Damaged sector count                 : 0

Track 13
    Filename : /Volumes/PINEAPPLE ARMY/Music/Attack Attack!/Attack Attack!/13 Turbo Swag.flac

    Track gain             : -10.19 dB
    Peak                   : 1.000000
    CRC32 hash (test run)  : 7E9CB18F
    CRC32 hash             : 7E9CB18F
    CRC32 hash (skip zero) : EE1432AF
    AccurateRip signature  : 68667A20
        ->Track not present in AccurateRip database.
    Statistics
        Read error                           : 0
        Jitter error (maybe fixed)           : 0
        Retry sector count                   : 0
        Damaged sector count                 : 0

Track 14
    Filename : /Volumes/PINEAPPLE ARMY/Music/Attack Attack!/Attack Attack!/14 Lonely.flac

    Track gain             : -9.91 dB
    Peak                   : 0.980042
    CRC32 hash (test run)  : 63E87FA1
    CRC32 hash             : 63E87FA1
    CRC32 hash (skip zero) : 07CA36CD
    AccurateRip signature  : A039A44E
        ->Track not present in AccurateRip database.
    Statistics
        Read error                           : 0
        Jitter error (maybe fixed)           : 0
        Retry sector count                   : 0
        Damaged sector count                 : 0

Track 15
    Filename : /Volumes/PINEAPPLE ARMY/Music/Attack Attack!/Attack Attack!/15 Sexual Man Chocolate (remix).flac

    Track gain             : -8.82 dB
    Peak                   : 0.769379
    CRC32 hash (test run)  : A74EBAA9
    CRC32 hash             : A74EBAA9
    CRC32 hash (skip zero) : 471D4B03
    AccurateRip signature  : 0B80F59B
        ->Track not present in AccurateRip database.
    Statistics
        Read error                           : 0
        Jitter error (maybe fixed)           : 0
        Retry sector count                   : 0
        Damaged sector count                 : 0

Track 16
    Filename : /Volumes/PINEAPPLE ARMY/Music/Attack Attack!/Attack Attack!/16 AC-130 (remix).flac

    Track gain             : -8.17 dB
    Peak                   : 0.769379
    CRC32 hash (test run)  : 4DCB7450
    CRC32 hash             : 4DCB7450
    CRC32 hash (skip zero) : 46C883A9
    AccurateRip signature  : F573D21C
        ->Track not present in AccurateRip database.
    Statistics
        Read error                           : 0
        Jitter error (maybe fixed)           : 0
        Retry sector count                   : 0
        Damaged sector count                 : 0

Track 17
    Filename : /Volumes/PINEAPPLE ARMY/Music/Attack Attack!/Attack Attack!/17 "I Swear I'll Change" (acoustic).flac

    Track gain             : -8.37 dB
    Peak                   : 0.769379
    CRC32 hash (test run)  : 0F5020AC
    CRC32 hash             : 0F5020AC
    CRC32 hash (skip zero) : BB3BEC93
    AccurateRip signature  : 78688BA8
        ->Track not present in AccurateRip database.
    Statistics
        Read error                           : 0
        Jitter error (maybe fixed)           : 0
        Retry sector count                   : 0
        Damaged sector count                 : 0

Track 18
    Filename : /Volumes/PINEAPPLE ARMY/Music/Attack Attack!/Attack Attack!/18 Turbo Swag (acoustic).flac

    Track gain             : -8.74 dB
    Peak                   : 0.769379
    CRC32 hash (test run)  : C0BEAEDF
    CRC32 hash             : C0BEAEDF
    CRC32 hash (skip zero) : 5421D0A0
    AccurateRip signature  : 92D6D39E
        ->Track not present in AccurateRip database.
    Statistics
        Read error                           : 0
        Jitter error (maybe fixed)           : 0
        Retry sector count                   : 0
        Damaged sector count                 : 0

No errors occurred

End of status report


Код:
Код:
-----------------------

DON'T MODIFY THIS FILE

-----------------------

PERFORMER: auCDtect Task Manager, ver. 1.5.1RC6 build 1.5.1.7
Copyright (c) 2008-2010 y-soft. All rights reserved
http:/y-soft.org

ANALYZER: auCDtect: CD records authenticity detector, version 0.8.2
Copyright (c) 2004 Oleg Berngardt. All rights reserved.
Copyright (c) 2004 Alexander Djourik. All rights reserved.

FILE: 18. Attack Attack! - Turbo Swag (acoustic).flac
  Size: 25066643 Hash: 836F6FEB7E8806F3A19264885FDC8467 Accuracy: -m0
  Conclusion: CDDA 100%
  Signature: 7864D96B7167A09C0E79C1C2CF4F590D443466B0
FILE: 17. Attack Attack! - _I Swear I'll Change_ (acoustic).flac
  Size: 26545248 Hash: 00CA8F000FB7A3B7D1B2FE5B58D744D5 Accuracy: -m0
  Conclusion: CDDA 99%
  Signature: 8582D56501F63E5172180D774AB09EA47A9C3304
FILE: 16. Attack Attack! - AC-130 (remix).flac
  Size: 23590985 Hash: 58660F8AE9B2D6F3D24D8899DAA6F691 Accuracy: -m0
  Conclusion: CDDA 100%
  Signature: C11720A913C13C4D1A7872C032711792F2E35AC0
FILE: 15. Attack Attack! - Sexual Man Chocolate (remix).flac
  Size: 24333943 Hash: 074D5CBA14AEA80D346C8C82B57E0B9A Accuracy: -m0
  Conclusion: CDDA 100%
  Signature: 4C8334D3CD6A2B4F2643276F09F2D9983E15EC57
FILE: 14. Attack Attack! - Lonely.flac
  Size: 45661536 Hash: 2B922E0807013B07870187CC6CAE21AC Accuracy: -m0
  Conclusion: CDDA 99%
  Signature: 235D1B9119FCF3A13865891D04E7B10BCA791064
FILE: 13. Attack Attack! - Turbo Swag.flac
  Size: 30250615 Hash: 29A38EDEF0A3E8CDE4F6B16BC045B902 Accuracy: -m0
  Conclusion: CDDA 100%
  Signature: 33899BDC0CAF3FD3EBAD0D95A7E20D152B361E41
FILE: 12. Attack Attack! - Fumbles O'Brian.flac
  Size: 26680371 Hash: FBA2FF69ED6C437952EDAEBBE7B2628D Accuracy: -m0
  Conclusion: CDDA 100%
  Signature: F7F41B8E87699AEC042DC4B9891EA7E626F04697
FILE: 11. Attack Attack! - AC-130.flac
  Size: 15839091 Hash: F21A5C06A0EA467589920541DB4FECB1 Accuracy: -m0
  Conclusion: CDDA 99%
  Signature: C8FDE3966AF6DBCF7A35343AED16542A35241F90
FILE: 10. Attack Attack! - Smokahontas.flac
  Size: 33891242 Hash: 9FCC2BF281FBC0A7029386DD7136A75A Accuracy: -m0
  Conclusion: CDDA 100%
  Signature: D2F80B3CD751671F8E0CC5A76C60B3C93D5DCA0D
FILE: 09. Attack Attack! - A for Andrew.flac
  Size: 30307463 Hash: 3621065BF9EF546C664144D8510A0F86 Accuracy: -m0
  Conclusion: CDDA 100%
  Signature: FB9FD6081FF6439193136DEA0487030CF16FF0E3
FILE: 08. Attack Attack! - Shut Your Mouth.flac
  Size: 24574130 Hash: 32C70F01BA7E39544C58EB483085DDB5 Accuracy: -m0
  Conclusion: CDDA 100%
  Signature: E2EC05D4AD256BB99B14E0A2EE9F679C5167C940
FILE: 07. Attack Attack! - _I Swear I'll Change_.flac
  Size: 30480227 Hash: 12A40C379D58517DD0CC5A14CF1B895D Accuracy: -m0
  Conclusion: CDDA 100%
  Signature: 2B051E5519F5EA68DC28247AC99362A7E6F157D4
FILE: 06. Attack Attack! - Renob, Nevada.flac
  Size: 28203881 Hash: 40CF16B6BCDD380D44DD41D7F808331B Accuracy: -m0
  Conclusion: CDDA 100%
  Signature: 17458FCEA8D22A26CB0D68C89D000A4F6992D524
FILE: 05. Attack Attack! - Sexual Man Chocolate.flac
  Size: 27815386 Hash: 431A1A44E3E89EB610A5AF381F207C68 Accuracy: -m0
  Conclusion: CDDA 100%
  Signature: C4575D084724F2B100B0FE8CF1F9EDD4183782A8
FILE: 04. Attack Attack! - All Alone.flac
  Size: 35624754 Hash: DAD2FDA55771E89CA373FA7F55296934 Accuracy: -m0
  Conclusion: CDDA 100%
  Signature: EFC2C1B868980713912C318ED3FA288BBD81C138
FILE: 03. Attack Attack! - Criminal.flac
  Size: 28936692 Hash: C21F904F093EA7B589ECB242A5685A25 Accuracy: -m0
  Conclusion: CDDA 100%
  Signature: D4B024C458B7945356043431DB080793FC79EF7D
FILE: 02. Attack Attack! - Pick a Side.flac
  Size: 22959070 Hash: CD1DD03328620F753C7ED206B55BACAF Accuracy: -m0
  Conclusion: CDDA 99%
  Signature: 5AF19098638830D770A232FFD027ED28B8250727
FILE: 01. Attack Attack! - Last Breath.flac
  Size: 30930108 Hash: 3CE5ABF1EBDCC2738DEA4713CE1480BA Accuracy: -m0
  Conclusion: CDDA 100%
  Signature: 186640221F02504E0CF513E90D9AB41073213261



#777Треклист:

01. The Revolution
02. The Betrayal
03. The Hopeless
04. The Reality
05. The Abduction
06. The Motivation
07. The Wretched
08. The Family
09. The Confrontation
10. The Eradication

Продолжительность: 00:36:28


Код:
Код:
X Lossless Decoder version 20111214 (138.1)

XLD extraction logfile from 2012-01-21 01:13:58 +0000

Attack Attack! / This Means War

Used drive : MATSHITA DVD-R   UJ-898 (revision HC10)

Ripper mode             : XLD Secure Ripper
Disable audio cache     : OK for the drive with a cache less than 1375KiB
Make use of C2 pointers : NO
Read offset correction  : 102
Max retry count         : 100
Gap status              : Analyzed, Appended

TOC of the extracted CD
     Track |   Start  |  Length  | Start sector | End sector
    ---------------------------------------------------------
        1  | 00:00:00 | 04:11:59 |         0    |    18883
        2  | 04:11:59 | 03:26:39 |     18884    |    34372
        3  | 07:38:23 | 03:37:70 |     34373    |    50717
        4  | 11:16:18 | 03:50:15 |     50718    |    67982
        5  | 15:06:33 | 03:02:27 |     67983    |    81659
        6  | 18:08:60 | 04:06:01 |     81660    |   100110
        7  | 22:14:61 | 04:05:48 |    100111    |   118533
        8  | 26:20:34 | 03:10:00 |    118534    |   132783
        9  | 29:30:34 | 03:36:69 |    132784    |   149052
       10  | 33:07:28 | 03:21:26 |    149053    |   164153

AccurateRip Summary
    Disc not found in AccurateRip DB.

All Tracks
    Album gain             : -11.92 dB
    Peak                   : 0.968536
    Statistics
        Read error                           : 0
        Jitter error (maybe fixed)           : 0
        Retry sector count                   : 0
        Damaged sector count                 : 0

Track 01
    Filename : /Volumes/PINEAPPLE ARMY/Music/Attack Attack!/This Means War/01 The Revolution.flac
    Pre-gap length : 00:02:00

    Track gain             : -11.47 dB
    Peak                   : 0.968536
    CRC32 hash (test run)  : 413BF44B
    CRC32 hash             : 413BF44B
    CRC32 hash (skip zero) : 9B960F42
    AccurateRip signature  : 115D65F4
        ->Track not present in AccurateRip database.
    Statistics
        Read error                           : 0
        Jitter error (maybe fixed)           : 0
        Retry sector count                   : 0
        Damaged sector count                 : 0

Track 02
    Filename : /Volumes/PINEAPPLE ARMY/Music/Attack Attack!/This Means War/02 The Betrayal.flac

    Track gain             : -12.09 dB
    Peak                   : 0.968536
    CRC32 hash (test run)  : AECF3727
    CRC32 hash             : AECF3727
    CRC32 hash (skip zero) : CD90DDA1
    AccurateRip signature  : 7D492269
        ->Track not present in AccurateRip database.
    Statistics
        Read error                           : 0
        Jitter error (maybe fixed)           : 0
        Retry sector count                   : 0
        Damaged sector count                 : 0

Track 03
    Filename : /Volumes/PINEAPPLE ARMY/Music/Attack Attack!/This Means War/03 The Hopeless.flac

    Track gain             : -12.23 dB
    Peak                   : 0.968536
    CRC32 hash (test run)  : B2A5F1FB
    CRC32 hash             : B2A5F1FB
    CRC32 hash (skip zero) : 2E4AD307
    AccurateRip signature  : E039B283
        ->Track not present in AccurateRip database.
    Statistics
        Read error                           : 0
        Jitter error (maybe fixed)           : 0
        Retry sector count                   : 0
        Damaged sector count                 : 0

Track 04
    Filename : /Volumes/PINEAPPLE ARMY/Music/Attack Attack!/This Means War/04 The Reality.flac

    Track gain             : -12.02 dB
    Peak                   : 0.968536
    CRC32 hash (test run)  : F0C9AA2C
    CRC32 hash             : F0C9AA2C
    CRC32 hash (skip zero) : 4DCE649A
    AccurateRip signature  : 4ACA59CC
        ->Track not present in AccurateRip database.
    Statistics
        Read error                           : 0
        Jitter error (maybe fixed)           : 0
        Retry sector count                   : 0
        Damaged sector count                 : 0

Track 05
    Filename : /Volumes/PINEAPPLE ARMY/Music/Attack Attack!/This Means War/05 The Abduction.flac

    Track gain             : -11.59 dB
    Peak                   : 0.968536
    CRC32 hash (test run)  : 8C6F0899
    CRC32 hash             : 8C6F0899
    CRC32 hash (skip zero) : 841C22E1
    AccurateRip signature  : 33FDAA4E
        ->Track not present in AccurateRip database.
    Statistics
        Read error                           : 0
        Jitter error (maybe fixed)           : 0
        Retry sector count                   : 0
        Damaged sector count                 : 0

Track 06
    Filename : /Volumes/PINEAPPLE ARMY/Music/Attack Attack!/This Means War/06 The Motivation.flac

    Track gain             : -12.02 dB
    Peak                   : 0.968536
    CRC32 hash (test run)  : 3EC81318
    CRC32 hash             : 3EC81318
    CRC32 hash (skip zero) : C33E7411
    AccurateRip signature  : 68641875
        ->Track not present in AccurateRip database.
    Statistics
        Read error                           : 0
        Jitter error (maybe fixed)           : 0
        Retry sector count                   : 0
        Damaged sector count                 : 0

Track 07
    Filename : /Volumes/PINEAPPLE ARMY/Music/Attack Attack!/This Means War/07 The Wretched.flac

    Track gain             : -11.77 dB
    Peak                   : 0.968536
    CRC32 hash (test run)  : 63EBE101
    CRC32 hash             : 63EBE101
    CRC32 hash (skip zero) : 2391F485
    AccurateRip signature  : F93C9626
        ->Track not present in AccurateRip database.
    Statistics
        Read error                           : 0
        Jitter error (maybe fixed)           : 0
        Retry sector count                   : 0
        Damaged sector count                 : 0

Track 08
    Filename : /Volumes/PINEAPPLE ARMY/Music/Attack Attack!/This Means War/08 The Family.flac

    Track gain             : -11.83 dB
    Peak                   : 0.968536
    CRC32 hash (test run)  : D99EDFA1
    CRC32 hash             : D99EDFA1
    CRC32 hash (skip zero) : 5EEABED4
    AccurateRip signature  : DAC537D5
        ->Track not present in AccurateRip database.
    Statistics
        Read error                           : 0
        Jitter error (maybe fixed)           : 0
        Retry sector count                   : 0
        Damaged sector count                 : 0

Track 09
    Filename : /Volumes/PINEAPPLE ARMY/Music/Attack Attack!/This Means War/09 The Confrontation.flac

    Track gain             : -11.71 dB
    Peak                   : 0.968536
    CRC32 hash (test run)  : FCDF4125
    CRC32 hash             : FCDF4125
    CRC32 hash (skip zero) : 836FD452
    AccurateRip signature  : 5552ACF7
        ->Track not present in AccurateRip database.
    Statistics
        Read error                           : 0
        Jitter error (maybe fixed)           : 0
        Retry sector count                   : 0
        Damaged sector count                 : 0

Track 10
    Filename : /Volumes/PINEAPPLE ARMY/Music/Attack Attack!/This Means War/10 The Eradication.flac

    Track gain             : -11.95 dB
    Peak                   : 0.968536
    CRC32 hash (test run)  : 936F8D4F
    CRC32 hash             : 936F8D4F
    CRC32 hash (skip zero) : B983CCBE
    AccurateRip signature  : 10B3AC39
        ->Track not present in AccurateRip database.
    Statistics
        Read error                           : 0
        Jitter error (maybe fixed)           : 0
        Retry sector count                   : 0
        Damaged sector count                 : 0

No errors occurred

End of status report

Код:
Код:
-----------------------

DON'T MODIFY THIS FILE

-----------------------

PERFORMER: auCDtect Task Manager, ver. 1.5.1RC6 build 1.5.1.7
Copyright (c) 2008-2010 y-soft. All rights reserved
http:/y-soft.org

ANALYZER: auCDtect: CD records authenticity detector, version 0.8.2
Copyright (c) 2004 Oleg Berngardt. All rights reserved.
Copyright (c) 2004 Alexander Djourik. All rights reserved.

FILE: 10. Attack Attack! - The Eradication.flac
  Size: 31292385 Hash: A17EE9F65D46E34DEB5F6E8CAC73B632 Accuracy: -m0
  Conclusion: CDDA 100%
  Signature: A86C324B37148EFA458A11A5F45A362E0B635234
FILE: 09. Attack Attack! - The Confrontation.flac
  Size: 34048908 Hash: 72CA136F22D23446127C927A1A1D785A Accuracy: -m0
  Conclusion: CDDA 100%
  Signature: A895F4B851F832C41793DD4760DDED8CDF2877B8
FILE: 08. Attack Attack! - The Family.flac
  Size: 29037552 Hash: C2114DB285E267F02797BE7422A4A945 Accuracy: -m0
  Conclusion: CDDA 100%
  Signature: 5DCE79979460B6739FB19CF1F2E10F7CD2EC0684
FILE: 07. Attack Attack! - The Wretched.flac
  Size: 35067907 Hash: 1A92D35B5C8B7BD9AD839F44E7FDE7CB Accuracy: -m0
  Conclusion: CDDA 100%
  Signature: E37707A3EB58F985B5C4191E434CBB11D830AF15
FILE: 06. Attack Attack! - The Motivation.flac
  Size: 35541571 Hash: 18002B5D647932A1159EDC69085BF8D7 Accuracy: -m0
  Conclusion: CDDA 99%
  Signature: CBA130F39C069E88651F25851F4D80E715864676
FILE: 05. Attack Attack! - The Abduction.flac
  Size: 27783646 Hash: 0F4B8C48209E832E901CCD92FC6F21EA Accuracy: -m0
  Conclusion: CDDA 100%
  Signature: DF778050A7E518CFF7B25A77195B1B43356AB898
FILE: 04. Attack Attack! - The Reality.flac
  Size: 35311174 Hash: F1B7122BC782BAC6B8FCEC2D942F618B Accuracy: -m0
  Conclusion: CDDA 100%
  Signature: 95D24E306723B038CB14B38D628883B906304715
FILE: 03. Attack Attack! - The Hopeless.flac
  Size: 32494145 Hash: 2AF97A25CD07E0452641B2FA71494A7D Accuracy: -m0
  Conclusion: CDDA 100%
  Signature: 4CA7F579BC4D4F59CB8886A5D2CBD23F90A8BDC1
FILE: 02. Attack Attack! - The Betrayal.flac
  Size: 30850557 Hash: A7A5339D2F849A928A161C22841E43B1 Accuracy: -m0
  Conclusion: CDDA 100%
  Signature: E5D9250589E100B2C6434A247707062D5C2C77D4
FILE: 01. Attack Attack! - The Revolution.flac
  Size: 36298679 Hash: 3B2780C0D9ACD318024E8EB953341028 Accuracy: -m0
  Conclusion: CDDA 100%
  Signature: 7C5415551E5090FF52E60BDB33AFF1C1BD273963




Тип рипа: Tracks+.cue
Аудиокодек: FLAC
Битрейт аудио: lossless
Правила, инструкции, FAQ!!!
Торрент  Добавлен [16 мар 2014, 00:53] Скачать торрент Магнет ссылка
Скачать торрент
[ Размер 20.47 КБ / Просмотров 97 ]

Статус  
 
Размер  1.31 ГБ
Приватный: Нет (DHT включён)
.torrent скачан  0
 


     Отправить личное сообщение
   
Страница 1 из 1
Показать сообщения за:  Поле сортировки  
Начать новую тему Ответить на тему


Сейчас этот форум просматривают: нет зарегистрированных пользователей и гости: 1


Вы не можете начинать темы
Вы не можете отвечать на сообщения
Вы не можете редактировать свои сообщения
Вы не можете удалять свои сообщения
Вы не можете добавлять вложения

Перейти:  
cron