Начать новую тему Ответить на тему
Статистика раздачи
Размер: 369.02 МБ | Добавлен: 16 мар 2014, 00:07 | Скачали: 0
Сидеров: 1  [0 байт/сек]    Личеров: 0  [0 байт/сек]
Пред. тема | След. тема 

Автор
Сообщение

СообщениеДобавлено: 16 мар 2014, 00:07 

Ответить с цитатой 

Astrakhan - Retrospective (2013)

Год: 2013
Жанр: Progressive Rock
Лейбл: Power Prog
Каталог #: 4260115032365
Продолжительность: 00:51:08
Кодек: FLAC
Тип рипа: image + .cue
Битрейт: Lossless
Треклист:
01. Under The Sun Part 1 (2:38)
02. Shadow Of The Light (5:32)
03. Propaganda (6:56)
04. Higher Ground (6:05)
05. NoName Lane (5:26)
06. Extreme Media Makeover (5:50)
07. Long Gone Generation (6:08)
08. Modern Original Sin (5:44)
09. State Of Mind (5:25)
10. Under The Sun Part 2 (1:25)
Код:
Код:
Exact Audio Copy V1.0 beta 3 from 29. August 2011

EAC extraction logfile from 6. January 2014, 15:20

Astrakhan / Retrospective

Used drive  : Optiarc DVD RW AD-5280S   Adapter: 2  ID: 2

Read mode               : Secure
Utilize accurate stream : Yes
Defeat audio cache      : Yes
Make use of C2 pointers : No

Read offset correction                      : 48
Overread into Lead-In and Lead-Out          : No
Fill up missing offset samples with silence : Yes
Delete leading and trailing silent blocks   : No
Null samples used in CRC calculations       : Yes
Used interface                              : Installed external ASPI interface

Used output format              : User Defined Encoder
Selected bitrate                : 768 kBit/s
Quality                         : High
Add ID3 tag                     : No
Command line compressor         : F:\Program Files\Exact Audio Copy\Flac\flac.exe
Additional command line options :  -V -8 -T "Date=%year%" -T "Genre=%genre%" %source%

TOC of the extracted CD

     Track |   Start  |  Length  | Start sector | End sector
    ---------------------------------------------------------
        1  |  0:00.00 |  2:38.08 |         0    |    11857
        2  |  2:38.08 |  5:31.58 |     11858    |    36740
        3  |  8:09.66 |  6:55.50 |     36741    |    67915
        4  | 15:05.41 |  6:05.14 |     67916    |    95304
        5  | 21:10.55 |  5:26.31 |     95305    |   119785
        6  | 26:37.11 |  5:49.63 |    119786    |   146023
        7  | 32:26.74 |  6:07.66 |    146024    |   173614
        8  | 38:34.65 |  5:44.05 |    173615    |   199419
        9  | 44:18.70 |  5:24.56 |    199420    |   223775
       10  | 49:43.51 |  1:24.57 |    223776    |   230132

Range status and errors

Selected range

     Filename D:\Sket4er\Astrakhan - Retrospective 2013 [flac]\Astrakhan - Retrospective.wav

     Peak level 99.9 %
     Extraction speed 4.1 X
     Range quality 100.0 %
     Test CRC F4BFECC3
     Copy CRC F4BFECC3
     Copy OK

No errors occurred

AccurateRip summary

Track  1  not present in database
Track  2  not present in database
Track  3  not present in database
Track  4  not present in database
Track  5  not present in database
Track  6  not present in database
Track  7  not present in database
Track  8  not present in database
Track  9  not present in database
Track 10  not present in database

None of the tracks are present in the AccurateRip database

End of status report

==== Log checksum 532F72AD3F8E26EC886A4003A8FBBC85AD669F6C0506B5E9AE7D3DDC6D4D255B ====

Код:
Код:
-----------------------

DON'T MODIFY THIS FILE

-----------------------

PERFORMER: auCDtect Task Manager, ver. 1.6.0 RC1 build 1.6.0.1
Copyright (c) 2008-2010 y-soft. All rights reserved
http:/y-soft.org

ANALYZER: auCDtect: CD records authenticity detector, version 0.8.2
Copyright (c) 2004 Oleg Berngardt. All rights reserved.
Copyright (c) 2004 Alexander Djourik. All rights reserved.

FILE: Astrakhan - Retrospective.flac
  Size: 337729345 Hash: EF2391A372636F5B7D873F501FD3CBE7 Accuracy: -m0
  Conclusion: CDDA 100%
  Signature: 6B0F6DE2B3944D6DD1D8246D7DD04A82DA36D946

Код:
Код:
REM GENRE "Progressive Rock"
REM DATE 2013
REM DISCID 930BFC0A
REM COMMENT "ExactAudioCopy v1.0b3"
PERFORMER "Astrakhan"
TITLE "Retrospective"
FILE "Astrakhan - Retrospective.flac" WAVE
  TRACK 01 AUDIO
    TITLE "Under The Sun Part 1"
    PERFORMER "Astrakhan"
    INDEX 01 00:00:00
  TRACK 02 AUDIO
    TITLE "Shadow Of The Light"
    PERFORMER "Astrakhan"
    INDEX 01 02:38:08
  TRACK 03 AUDIO
    TITLE "Propaganda"
    PERFORMER "Astrakhan"
    INDEX 00 08:09:61
    INDEX 01 08:09:66
  TRACK 04 AUDIO
    TITLE "Higher Ground"
    PERFORMER "Astrakhan"
    INDEX 00 15:05:23
    INDEX 01 15:05:41
  TRACK 05 AUDIO
    TITLE "NoName Lane"
    PERFORMER "Astrakhan"
    INDEX 00 21:09:59
    INDEX 01 21:10:55
  TRACK 06 AUDIO
    TITLE "Extreme Media Makeover"
    PERFORMER "Astrakhan"
    INDEX 00 26:36:55
    INDEX 01 26:37:11
  TRACK 07 AUDIO
    TITLE "Long Gone Generation"
    PERFORMER "Astrakhan"
    INDEX 00 32:26:66
    INDEX 01 32:26:74
  TRACK 08 AUDIO
    TITLE "Modern Original Sin"
    PERFORMER "Astrakhan"
    INDEX 00 38:34:51
    INDEX 01 38:34:65
  TRACK 09 AUDIO
    TITLE "State Of Mind"
    PERFORMER "Astrakhan"
    INDEX 00 44:16:71
    INDEX 01 44:18:70
  TRACK 10 AUDIO
    TITLE "Under The Sun Part 2"
    PERFORMER "Astrakhan"
    INDEX 01 49:43:51

Правила, инструкции, FAQ!!!
Торрент  Добавлен [16 мар 2014, 00:07] Скачать торрент Магнет ссылка
Скачать торрент
[ Размер 15.75 КБ / Просмотров 41 ]

Статус  
 
Размер  369.02 МБ
Приватный: Нет (DHT включён)
.torrent скачан  0
 


     Отправить личное сообщение
   
Страница 1 из 1
Показать сообщения за:  Поле сортировки  
Начать новую тему Ответить на тему


Сейчас этот форум просматривают: нет зарегистрированных пользователей и гости: 0


Вы не можете начинать темы
Вы не можете отвечать на сообщения
Вы не можете редактировать свои сообщения
Вы не можете удалять свои сообщения
Вы не можете добавлять вложения

Перейти:  
cron
cron