Начать новую тему Ответить на тему
Статистика раздачи
Размер: 946.9 МБ | Добавлен: 24 авг 2016, 14:15 | Скачали: 0
Сидеров: 4  [0 байт/сек]    Личеров: 1  [0 байт/сек]
Пред. тема | След. тема 

Автор
Сообщение

СообщениеДобавлено: 24 авг 2016, 14:15 

Ответить с цитатой 

Emerson, Lake & Palmer(ELP) - Emerson, Lake & Palmer (1971)

Жанр: Art-Rock & ProgRock
Год выпуска: 1971
Лейбл: Atlantic /SD 19120
Страна-производитель: USA
Аудио кодек: FLAC
Тип рипа: tracks+.cue
Формат записи: 24bit/96kHz
Формат раздачи: 24bit/96kHz
Продолжительность: 00:42:00
Треклист:
A1 The Barbarian 4:27
A2 Take A Pebble 12:32
A3 Knife-Edge 5:04

B1 The Three Fates (7:46)
a) Clotho (Royal Festival Hall Organ)
b) Lachesis (Piano Solo)
c) Atropos (Piano Trio)
B2 Tank 6:49
B3 Lucky Man 4:36

Источник оцифровки: Fran Solo(AwaxHome)
Устройство воспроизведения: Marantz 6170
Головка звукоснимателя: SHURE M97xE
Предварительный усилитель: Sansui 9090DB
АЦП: E-MU 0404
Программа-оцифровщик: неуказано
Обработка: неуказана
Состояние винила: NM (?)
первый и последний треки





любой трек(первый - самый маленький - 105 мб)
----------------------------------------------------------------------------------------------
Analyzed folder: /Emerson, Lake & Palmer - Emerson, Lake & Palmer (LP)
----------------------------------------------------------------------------------------------
DR Peak RMS Filename
----------------------------------------------------------------------------------------------

DR10 -1.62 dB -15.08 dB 01 Emerson, Lake & Palmer - LADO 1- The Barbarian.wav
DR13 -0.00 dB -17.64 dB 02 Emerson, Lake & Palmer - Take A Pebble.wav
DR11 -0.64 dB -14.10 dB 03 Emerson, Lake & Palmer - Knife-Edge.wav
DR12 over -15.48 dB 04 Emerson, Lake & Palmer - LADO 2- The Three Fates.wav
DR11 -0.33 dB -14.42 dB 05 Emerson, Lake & Palmer - Tank.wav
DR10 -1.38 dB -15.18 dB 06 Emerson, Lake & Palmer - Lucky Man.wav
----------------------------------------------------------------------------------------------

Number of files: 6
Official DR value: DR11
================================


Правила, инструкции, FAQ!!!
Торрент  Добавлен [24 авг 2016, 14:15] Скачать торрент Магнет ссылка
Скачать торрент
[ Размер 19.77 КБ / Просмотров 18 ]

Статус
Проверен 
 
Размер  946.9 МБ
Приватный: Нет (DHT включён)
.torrent скачан  0
 


     Отправить личное сообщение
   
Страница 1 из 1
Показать сообщения за:  Поле сортировки  
Начать новую тему Ответить на тему


Сейчас этот форум просматривают: нет зарегистрированных пользователей и гости: 0


Вы не можете начинать темы
Вы не можете отвечать на сообщения
Вы не можете редактировать свои сообщения
Вы не можете удалять свои сообщения
Вы не можете добавлять вложения

Перейти:  
cron
cron