Начать новую тему Ответить на тему
Статистика раздачи
Размер: 1.59 ГБ | Добавлен: 24 авг 2016, 11:43 | Скачали: 1
Сидеров: 3  [0 байт/сек]    Личеров: 30  [0 байт/сек]
Пред. тема | След. тема 

Автор
Сообщение

СообщениеДобавлено: 24 авг 2016, 11:43 

Ответить с цитатой 

Peter Hammill ‎– Skin

Жанр: Art Rock, Prog Rock
Год выпуска: 1986
Лейбл: Virgin – 207686-8, Foundry Records
Страна-производитель: Germany
Аудио кодек: FLAC
Тип рипа: image+.cue
Формат записи: 24/192
Формат раздачи: 24/192
Продолжительность: 00:39:15
Треклист:
A1 Skin 4:12
A2 After The Show 4:15
A3 Painting By Numbers 4:00
A4 Shell 4:10
A5 All Said And Done 3:35
B1 A Perfect Date 4:10
B2 Four Pails Written-By – C.J.J. Smith, Max Hutchinson 4:24
B3 Now Lover 9:45

Источник оцифровки: автором раздачи
Код класса состояния винила: VG+
Устройство воспроизведения: TRIO KP-700D
Головка звукоснимателя: Goldring 1012
Предварительный усилитель: NAD PP2 M / ARCAM
АЦП: M-Audio Audiophile 192
Программа-оцифровщик: Sound Forge Pro 10
Обработка: Sound Forge Pro 10
REM GENRE Art Rock, Prog Rock
REM DATE 1986
REM MViktor_VINYLRIP
REM Virgin – 207686-8, Foundry Records, Germany
REM Producer, Artwork By [Cover] – Peter Hammill
REM Mastered By – Arun.
PERFORMER "Peter Hammill"
TITLE "Skin"
FILE "Skin (Side 1) 207 686.flac" WAVE
TRACK 01 AUDIO
TITLE "Skin"
PERFORMER "Peter Hammill"
INDEX 01 00:00:00
TRACK 02 AUDIO
TITLE "After The Show"
PERFORMER "Peter Hammill"
INDEX 01 04:18:30
TRACK 03 AUDIO
TITLE "Painting By Numbers"
PERFORMER "Peter Hammill"
INDEX 01 08:39:20
TRACK 04 AUDIO
TITLE "Shell"
PERFORMER "Peter Hammill"
INDEX 01 12:41:20
TRACK 05 AUDIO
TITLE "All Said And Done"
PERFORMER "Peter Hammill"
INDEX 01 17:00:30
FILE "Skin (Side 2) 207 686.flac" WAVE
TRACK 06 AUDIO
TITLE "A Perfect Date"
PERFORMER "Peter Hammill"
INDEX 01 00:00:00
TRACK 07 AUDIO
TITLE "Four Pails"
PERFORMER "C.J.J. Smith, Max Hutchinson"
INDEX 01 04:16:50
TRACK 08 AUDIO
TITLE "Now Lover"
PERFORMER "Peter Hammill"
INDEX 01 08:46:00

Первые 2 минуты каждой стороны.

Artwork By [Image Digitisation] – Gladstone Electronics
Cello [Perfect Mad] – Hugh Banton
Didgeridoo – David Coulter
Drums, Percussion – Guy Evans
Engineer – Coach (2), Neil Perry, Steve Street
Instruments, Vocals, Engineer, Producer, Artwork By [Cover] – Peter Hammill
Keyboards [Umi, Midi, Wave, What If?], Engineer, Producer, Artwork By [Paul Ridout] – Paul Ridout
Mastered By – Arun
Saxophone – David Jackson
Violin – Stuart Gordon
Vocals [Alternative] – David Luckhurst
Written-By – Peter Hammill (tracks: A1 to B1, B3)
Правила, инструкции, FAQ!!!
Торрент  Добавлен [24 авг 2016, 11:43] Скачать торрент Магнет ссылка
Скачать торрент
[ Размер 16.92 КБ / Просмотров 29 ]

Статус
Проверен 
 
Размер  1.59 ГБ
Приватный: Нет (DHT включён)
.torrent скачан  1
 


     Отправить личное сообщение
   
Страница 1 из 1
Показать сообщения за:  Поле сортировки  
Начать новую тему Ответить на тему


Сейчас этот форум просматривают: нет зарегистрированных пользователей и гости: 0


Вы не можете начинать темы
Вы не можете отвечать на сообщения
Вы не можете редактировать свои сообщения
Вы не можете удалять свои сообщения
Вы не можете добавлять вложения

Перейти:  
cron