Начать новую тему Ответить на тему
Статистика раздачи
Размер: 880.66 МБ | Добавлен: 24 авг 2016, 11:32 | Скачали: 1
Сидеров: 3  [0 байт/сек]    Личеров: 3  [0 байт/сек]
Пред. тема | След. тема 

Автор
Сообщение

СообщениеДобавлено: 24 авг 2016, 11:32 

Ответить с цитатой 

Phil ManZanera/K-Scope

Жанр: Art Rock, Pop Rock, Experimental
Год выпуска: 1978
Лейбл: E.G.Records Ltd.
Страна-производитель: Canada
Аудио кодек: APE
Тип рипа: tracks+.cue
Формат записи: 24/96
Формат раздачи: 24/96
Продолжительность: 45.08
Источник оцифровки: автором раздачи
Код класса состояния винила: VG+
Устройство воспроизведения: ProJect PRM 1.1/Shure M97xE
Предварительный усилитель: NAD PP3
АЦП: Creative SB X-Fi
Программа-оцифровщик: Sound Forge Pro 10
Обработка: Sound Forge Pro 10
A1 K-Scope 4:27
Bass - Bill MacCormick
Drums - Simon Phillips
Electric Piano - Eddie Rayner
Guitar, Other [Farsifas] - Phil Manzanera
Other [Gizmo] - Lol Creme
Saxophone - Mel Collins
Written-By - Manzanera*
A2 Remote Control 2:30
Backing Vocals - Neal Finn*
Bass, Backing Vocals - Bill MacCormick
Drums - Paul Thompson (2)
Electric Piano - Dave Skinner*
Guitar [Lead] - Phil Manzanera
Guitar [Rhythm] - Simon Ainley
Lead Vocals - Tim Finn
Written-By - I. MacCormick*
A3 Cuban Crisis 6:01
Backing Vocals - Neal Finn*
Bass, Vocals - Bill MacCormick
Drums, Percussion [Electronic] - Simon Phillips
Guitar - Phil Manzanera
Lead Vocals - Tim Finn
Upright Piano - Eddie Rayner
Written-By - W. MacCormick* , Manzanera*
A4 Hot Spot 5:00
Backing Vocals - Lol Creme
Backing Vocals, Percussion [Hi-hat] - Kevin Godley
Bass [Moog] - Eddie Rayner
Bass, Drums - Bill MacCormick
Drums - Simon Phillips
Guitar - Phil Manzanera
Lead Vocals - Tim Finn
Saxophone - Mel Collins
Written-By - W. MacCormick* , I. MacCormick* , Manzanera*
A5 Numbers 3:40
Drums - Simon Phillips
Keyboards, Guitar - Phil Manzanera
Voice - John Wetton
Written-By - Wetton* , Manzanera*
B1 Slow Motion TV 3:10
Backing Vocals - Neal Finn*
Bass, Backing Vocals - Bill MacCormick
Drums - Paul Thompson (2)
Guitar - Phil Manzanera
Guitar [Rhythm] - Simon Ainley
Lead Vocals - Tim Finn
Piano [Bosendorf] - Eddie Rayner
Saxophone [Baritone] - Mel Collins
Synthesizer [Yamaha Cs80] - Dave Skinner*
Written-By - W. MacCormick* , Manzanera* , Ainley*
B2 Gone Flying 4:27
Bass - Bill MacCormick
Drums - Simon Phillips
Guitar [Echo] - Phil Manzanera
Synthesizer [Yamaha Cs80] - Eddie Rayner
Written-By - W. MacCormick* , Manzanera*
B3 N-Shift 5:00
Bass - Bill MacCormick
Drums - Simon Phillips
Guitar - Phil Manzanera
Piano - Francis Monkman
Written-By - Manzanera*
B4 Walking Through Heaven's Door 6:35
Bass - John Wetton
Bass, Vocals - Bill MacCormick
Drums - Simon Phillips
Written-By - W. MacCormick* , Manzanera*
B5 You Are Here 3:18
Synthesizer, Synthesizer [Yamaha Cs80], Guitar, Keyboards - Phil Manzanera
REM GENRE "Prog.Rock"
REM DATE 1978
TITLE "K-Scope"
PERFORMER "Manzanera"
FILE "EGLP 37 A,B.ape" WAVE
TRACK 01 AUDIO
TITLE "K-Scope"
PERFORMER "Manzanera"
INDEX 01 00:00:00
TRACK 02 AUDIO
TITLE "Remote Control"
PERFORMER "Manzanera"
INDEX 01 04:30:33
TRACK 03 AUDIO
TITLE "Cuban Crisis"
PERFORMER "I. MacCormick"
INDEX 01 07:08:50
TRACK 04 AUDIO
TITLE "Hot Spot"
PERFORMER "Manzanera/W. MacCormick"
INDEX 01 13:11:42
TRACK 05 AUDIO
TITLE "Numbers"
PERFORMER "Manzanera/W. & I. MacCormick"
INDEX 01 18:13:55
TRACK 06 AUDIO
TITLE "Slow Motion TV"
PERFORMER "Manzanera/Wetton"
INDEX 01 21:44:28
TRACK 07 AUDIO
TITLE "Gone Flying"
PERFORMER "Manzanera/W. MacCormick/Ainley"
INDEX 01 24:56:44
TRACK 08 AUDIO
TITLE "N-Shift"
PERFORMER "Manzanera/W. MacCormick"
INDEX 01 29:25:14
TRACK 09 AUDIO
TITLE "Walking Through Heaven`s Door"
PERFORMER "Manzanera"
INDEX 01 34:57:34
TRACK 010 AUDIO
TITLE "YouAre Here"
PERFORMER "Manzanera/W. MacCormick"
INDEX 01 41:50:32
Правила, инструкции, FAQ!!!
Торрент  Добавлен [24 авг 2016, 11:32] Скачать торрент Магнет ссылка
Скачать торрент
[ Размер 17.7 КБ / Просмотров 7 ]

Статус
Проверен 
 
Размер  880.66 МБ
Приватный: Нет (DHT включён)
.torrent скачан  1
 


     Отправить личное сообщение
   
Страница 1 из 1
Показать сообщения за:  Поле сортировки  
Начать новую тему Ответить на тему


Сейчас этот форум просматривают: нет зарегистрированных пользователей и гости: 0


Вы не можете начинать темы
Вы не можете отвечать на сообщения
Вы не можете редактировать свои сообщения
Вы не можете удалять свои сообщения
Вы не можете добавлять вложения

Перейти:  
cron
cron