Начать новую тему Ответить на тему
Статистика раздачи
Размер: 1.91 ГБ | Добавлен: 24 авг 2016, 12:02 | Скачали: 0
Сидеров: 5  [0 байт/сек]    Личеров: 1  [0 байт/сек]
Пред. тема | След. тема 

Автор
Сообщение

СообщениеДобавлено: 24 авг 2016, 12:02 

Ответить с цитатой 

Journey / Raised On Radio (JP)

Жанр: Arena Rock,Pop Rock, Prog Rock
Носитель:LP
Год выпуска: 1986
Лейбл: CBS/Sony – 28AP 3177
Страна-производитель: JP
Аудио кодек: FLAC
Тип рипа: image+.cue
Формат записи: 32/192
Формат раздачи: 24/192
Продолжительность: 00:44:47
Journey

A1 - Girl Can't Help It 3:50
A2 - Positive Touch 4:13
A3 - Suzanne 3:37
A4 - Be Good To Yourself 3:49
A5 - Once You Love Somebody 4:39
A6 - Happy To Give 3:47

B1 - Raised On Radio 3:48
B2 - I'll Be Alright Without You 4:49
B3 - It Could Have Been You 3:34
B4 - The Eyes Of A Woman 4:32
B5 - Why Can't This Night Go On Forever 3:35
Источник оцифровки: автором раздачи
Код класса состояния винила: EX+
Устройство воспроизведения: Pioneer PL-30L
Головка звукоснимателя: AT-TT30Ems
Предварительный усилитель: NAD PP2iM
АЦП: Xonar Essence ST
Программа-оцифровщик: SF10
Обработка:убрал три по мелочи + нормализ -1,6
NO
Companies etc:
Copyright (c) – CBS Inc.
Manufactured By – CBS/Sony Inc.
Recorded At – The Plant Studios
Recorded At – Fantasy Studios
Mastered At – Masterdisk
Credits:
Mastered By – Bob Ludwig
Mixed By – Bob Clearmountain
Producer – Steve Perry
Producer [Associate] – Jim Gaines
Barcode and Other Identifiers
Barcode: T4988 009 51071 2
REM GENRE Arena Rock, Pop Rock, Prog Rock
REM DATE 1986
REM yamata6839_VINYLRIP
REM CBS/Sony – 28AP 3177, JP
REM Mastered By – Bob Ludwig
REM Producer – Steve Perry
PERFORMER "Journey"
TITLE "DRaised On Radio"
FILE "Raised On Radio.flac" WAVE
TRACK 01 AUDIO
TITLE "Any Way You Want It"
PERFORMER "Journey"
INDEX 01 00:00:00
TRACK 02 AUDIO
TITLE "Walks Like A Lady"
PERFORMER "Journey"
INDEX 01 03:29:10
TRACK 03 AUDIO
TITLE "Someday Soon"
PERFORMER "Journey"
INDEX 01 06:46:35
TRACK 04 AUDIO
TITLE "People And Places"
PERFORMER "Journey"
INDEX 01 10:21:21
TRACK 05 AUDIO
TITLE "Precious Time"
PERFORMER "Journey"
INDEX 01 15:28:22
TRACK 06 AUDIO
TITLE "Where Were You"
PERFORMER "Journey"
INDEX 01 20:22:01
TRACK 07 AUDIO
TITLE "I'm Cryin"
PERFORMER "Journey"
INDEX 01 23:27:72
TRACK 08 AUDIO
TITLE "Line Of Fire"
PERFORMER "Journey"
INDEX 01 27:12:50
TRACK 09 AUDIO
TITLE "Departure"
PERFORMER "Journey"
INDEX 01 30:18:25
TRACK 010 AUDIO
TITLE "Good Morning Girl"
PERFORMER "Journey"
INDEX 01 30:59:11
TRACK 11 AUDIO
TITLE "Stay Awhile"
PERFORMER "Journey"
INDEX 01 32:42:35
TRACK 12 AUDIO
TITLE "Homemade Love"
PERFORMER "Journey"
INDEX 01 35:32:05
Pre: / / / /

Все материалы представлены исключительно в ознакомительных целях ознакомиться можно пароль 44 Welcom Comrades in Arms Vinyl!
Правила, инструкции, FAQ!!!
Торрент  Добавлен [24 авг 2016, 12:02] Скачать торрент Магнет ссылка
Скачать торрент
[ Размер 19.87 КБ / Просмотров 50 ]

Статус
Проверен 
 
Размер  1.91 ГБ
Приватный: Нет (DHT включён)
.torrent скачан  0
 


     Отправить личное сообщение
   
Страница 1 из 1
Показать сообщения за:  Поле сортировки  
Начать новую тему Ответить на тему


Сейчас этот форум просматривают: нет зарегистрированных пользователей и гости: 0


Вы не можете начинать темы
Вы не можете отвечать на сообщения
Вы не можете редактировать свои сообщения
Вы не можете удалять свои сообщения
Вы не можете добавлять вложения

Перейти:  
cron
cron