Начать новую тему Ответить на тему
Статистика раздачи
Размер: 282.44 МБ | Добавлен: 16 мар 2014, 00:49 | Скачали: 5
Сидеров: 8  [0 байт/сек]    Личеров: 1  [0 байт/сек]
Пред. тема | След. тема 

Автор
Сообщение

СообщениеДобавлено: 16 мар 2014, 00:49 

Ответить с цитатой 

Arctic Monkeys - AM (2013)

Год: 2013
Жанр: Indie Rock
Лейбл: No Paper Records, Domino
Каталог #: R14E
Продолжительность: 00:45:16
Кодек: FLAC
Тип рипа: tracks + .cue
Битрейт: Lossless
Треклист:
01. Do I Wanna Know? (4:33)
02. R U Mine? (3:22)
03. One for the Road (3:26)
04. Arabella (3:27)
05. I Want It All (3:04)
06. No. 1 Party Anthem (4:03)
07. Mad Sounds (3:35)
08. Fireside (3:01)
09. Why'd You Only Call Me When You're High? (2:41)
10. Snap Out of It (3:13)
11. Knee Socks (4:18)
12. I Wanna Be Yours (4:04)
13. 2013 (2:29)
Код:
Код:
Exact Audio Copy V1.0 beta 3 from 29. August 2011

EAC extraction logfile from 12. September 2013, 13:28

Arctic Monkeys / AM

Used drive  : HL-DT-STDVDRAM GH22NS50   Adapter: 3  ID: 1

Read mode               : Secure
Utilize accurate stream : Yes
Defeat audio cache      : Yes
Make use of C2 pointers : No

Read offset correction                      : 667
Overread into Lead-In and Lead-Out          : No
Fill up missing offset samples with silence : Yes
Delete leading and trailing silent blocks   : No
Null samples used in CRC calculations       : Yes
Used interface                              : Native Win32 interface for Win NT & 2000
Gap handling                                : Appended to previous track

Used output format              : User Defined Encoder
Selected bitrate                : 1024 kBit/s
Quality                         : High
Add ID3 tag                     : No
Command line compressor         : D:\Programy\FLAC\tools\flac.exe
Additional command line options : -8 -V -T "ARTIST=%artist%" -T "TITLE=%title%" -T "ALBUM=%albumtitle%" -T "DATE=%year%" -T "TRACKNUMBER=%tracknr%" -T "GENRE=%genre%" -T "PERFORMER=%albuminterpret%" -T "COMPOSER=%composer%" %haslyrics%--tag-from-file=LYRICS="%lyricsfile%"%haslyrics% -T "ALBUMARTIST=%albumartist%" -T "DISCNUMBER=%cdnumber%" -T "TOTALDISCS=%totalcds%" -T "TOTALTRACKS=%numtracks%" -T "COMMENT=%comment%" %source% -o %dest%

TOC of the extracted CD

     Track |   Start  |  Length  | Start sector | End sector
    ---------------------------------------------------------
        1  |  0:00.00 |  4:33.08 |         0    |    20482
        2  |  4:33.08 |  3:21.60 |     20483    |    35617
        3  |  7:54.68 |  3:26.03 |     35618    |    51070
        4  | 11:20.71 |  3:27.27 |     51071    |    66622
        5  | 14:48.23 |  3:04.26 |     66623    |    80448
        6  | 17:52.49 |  4:03.05 |     80449    |    98678
        7  | 21:55.54 |  3:35.05 |     98679    |   114808
        8  | 25:30.59 |  3:01.02 |    114809    |   128385
        9  | 28:31.61 |  2:41.10 |    128386    |   140470
       10  | 31:12.71 |  3:12.66 |    140471    |   154936
       11  | 34:25.62 |  4:17.43 |    154937    |   174254
       12  | 38:43.30 |  4:04.04 |    174255    |   192558
       13  | 42:47.34 |  2:29.00 |    192559    |   203733

Track  1

     Filename D:\What\Arctic Monkeys - AM (2013) [FLAC]\01 Do I Wanna Know.wav

     Pre-gap length  0:00:02.00

     Peak level 96.6 %
     Extraction speed 1.2 X
     Track quality 100.0 %
     Test CRC A60C78C6
     Copy CRC A60C78C6
     Track not present in AccurateRip database
     Copy OK

Track  2

     Filename D:\What\Arctic Monkeys - AM (2013) [FLAC]\02 R U Mine.wav

     Peak level 96.6 %
     Extraction speed 1.3 X
     Track quality 100.0 %
     Test CRC 688A1E19
     Copy CRC 688A1E19
     Track not present in AccurateRip database
     Copy OK

Track  3

     Filename D:\What\Arctic Monkeys - AM (2013) [FLAC]\03 One for the Road.wav

     Peak level 96.6 %
     Extraction speed 1.4 X
     Track quality 100.0 %
     Test CRC 495B23BB
     Copy CRC 495B23BB
     Track not present in AccurateRip database
     Copy OK

Track  4

     Filename D:\What\Arctic Monkeys - AM (2013) [FLAC]\04 Arabella.wav

     Peak level 96.6 %
     Extraction speed 1.5 X
     Track quality 100.0 %
     Test CRC D26715C2
     Copy CRC D26715C2
     Track not present in AccurateRip database
     Copy OK

Track  5

     Filename D:\What\Arctic Monkeys - AM (2013) [FLAC]\05 I Want It All.wav

     Peak level 96.6 %
     Extraction speed 1.5 X
     Track quality 100.0 %
     Test CRC BB6C573A
     Copy CRC BB6C573A
     Track not present in AccurateRip database
     Copy OK

Track  6

     Filename D:\What\Arctic Monkeys - AM (2013) [FLAC]\06 No. 1 Party Anthem.wav

     Peak level 96.6 %
     Extraction speed 1.7 X
     Track quality 100.0 %
     Test CRC D9E242CE
     Copy CRC D9E242CE
     Track not present in AccurateRip database
     Copy OK

Track  7

     Filename D:\What\Arctic Monkeys - AM (2013) [FLAC]\07 Mad Sounds.wav

     Peak level 96.6 %
     Extraction speed 1.7 X
     Track quality 100.0 %
     Test CRC 48D49241
     Copy CRC 48D49241
     Track not present in AccurateRip database
     Copy OK

Track  8

     Filename D:\What\Arctic Monkeys - AM (2013) [FLAC]\08 Fireside.wav

     Peak level 96.6 %
     Extraction speed 1.8 X
     Track quality 100.0 %
     Test CRC 5DDB05B0
     Copy CRC 5DDB05B0
     Track not present in AccurateRip database
     Copy OK

Track  9

     Filename D:\What\Arctic Monkeys - AM (2013) [FLAC]\09 Why'd You Only Call Me When You're High.wav

     Peak level 96.6 %
     Extraction speed 1.8 X
     Track quality 100.0 %
     Test CRC 6959FAE2
     Copy CRC 6959FAE2
     Track not present in AccurateRip database
     Copy OK

Track 10

     Filename D:\What\Arctic Monkeys - AM (2013) [FLAC]\10 Snap Out of It.wav

     Peak level 96.6 %
     Extraction speed 1.6 X
     Track quality 99.9 %
     Test CRC 032EFB7B
     Copy CRC 032EFB7B
     Track not present in AccurateRip database
     Copy OK

Track 11

     Filename D:\What\Arctic Monkeys - AM (2013) [FLAC]\11 Knee Socks.wav

     Peak level 96.6 %
     Extraction speed 2.0 X
     Track quality 100.0 %
     Test CRC FC10D2B2
     Copy CRC FC10D2B2
     Track not present in AccurateRip database
     Copy OK

Track 12

     Filename D:\What\Arctic Monkeys - AM (2013) [FLAC]\12 I Wanna Be Yours.wav

     Peak level 96.6 %
     Extraction speed 2.1 X
     Track quality 100.0 %
     Test CRC 564DE7B3
     Copy CRC 564DE7B3
     Track not present in AccurateRip database
     Copy OK

Track 13

     Filename D:\What\Arctic Monkeys - AM (2013) [FLAC]\13 2013.wav

     Pre-gap length  0:00:59.86

     Peak level 96.8 %
     Extraction speed 2.0 X
     Track quality 100.0 %
     Test CRC 4D95C330
     Copy CRC 4D95C330
     Track not present in AccurateRip database
     Copy OK

None of the tracks are present in the AccurateRip database

No errors occurred

End of status report

---- CUETools DB Plugin V2.1.3

[CTDB TOCID: EJk9uj3wiMCdTFinun9U8nc11y0-] found, Submit result: already submitted
[04145f8f] (1/1) Accurately ripped

==== Log checksum 9343EDEA7C059ACDB5DEEF54E862A212F8F8D23BEA9FDEF64FBE40182922D0C0 ====

Код:
Код:
-----------------------

DON'T MODIFY THIS FILE

-----------------------

PERFORMER: auCDtect Task Manager, ver. 1.6.0 RC1 build 1.6.0.1
Copyright (c) 2008-2010 y-soft. All rights reserved
http:/y-soft.org

ANALYZER: auCDtect: CD records authenticity detector, version 0.8.2
Copyright (c) 2004 Oleg Berngardt. All rights reserved.
Copyright (c) 2004 Alexander Djourik. All rights reserved.

FILE: 07. Mad Sounds.flac
  Size: 20187062 Hash: C410E1F586D501520AA1CE19F993F522 Accuracy: -m0
  Conclusion: CDDA 100%
  Signature: 0083B5157C1E1D110BE0F77FDDA8A493242AF57A
FILE: 06. No. 1 Party Anthem.flac
  Size: 27362617 Hash: F3BB980B29C061082F965FC4F9270A3F Accuracy: -m0
  Conclusion: CDDA 99%
  Signature: 72DBDCE34E9F4239C8C02518CF3296692E48100A
FILE: 05. I Want It All.flac
  Size: 21662118 Hash: F94BA710C2FD71C0755A7510B2C088EE Accuracy: -m0
  Conclusion: CDDA 100%
  Signature: 4BDA548BD9E155E7649DFE15353B6BC1F02BBD59
FILE: 04. Arabella.flac
  Size: 23404647 Hash: 267BF87C31CA5E36E27A612AB4A8D826 Accuracy: -m0
  Conclusion: CDDA 100%
  Signature: 7532DAA41345AF4A1F92C9908C31B4076B793802
FILE: 03. One for the Road.flac
  Size: 23470380 Hash: 8EFBD92A7D636D35BC5A380DF0607836 Accuracy: -m0
  Conclusion: CDDA 100%
  Signature: 56A9B0E838EA92A0FD365C92DEE7E651FA7F6CD1
FILE: 02. R U Mine_.flac
  Size: 24529554 Hash: 55D725DBCED199ED05F82825476E0E95 Accuracy: -m0
  Conclusion: CDDA 99%
  Signature: AD84A3759512AD460E0F96510424C0DC3C860D83
FILE: 01. Do I Wanna Know_.flac
  Size: 28742981 Hash: B3C29D56CB35DF177CE028ACD9949FC8 Accuracy: -m0
  Conclusion: CDDA 100%
  Signature: 5C3F69AE5D9868F57E759C3D4AB75EC1310A82C5
FILE: 13. 2013.flac
  Size: 17407085 Hash: 83143E64D3F94D902057FF136F65AD47 Accuracy: -m0
  Conclusion: CDDA 100%
  Signature: F65E9D1D7ED9C252EE4FCFF69EA8403DAFFF62F7
FILE: 12. I Wanna Be Yours.flac
  Size: 18106088 Hash: D2563014D97F7619C4AE15B4813F9D65 Accuracy: -m0
  Conclusion: CDDA 100%
  Signature: E189988E613BFCF8A23DE5EA062D98BDCC6F6136
FILE: 11. Knee Socks.flac
  Size: 27949891 Hash: 6E0F6EDD7C7B4A5506F2DA452A703A0D Accuracy: -m0
  Conclusion: CDDA 100%
  Signature: 273060F2C5D366C92C7FCD8FFB394FEFF60EC0DB
FILE: 10. Snap Out of It.flac
  Size: 21835113 Hash: B62BF15EB69982AA3CF37FCBD3F807C0 Accuracy: -m0
  Conclusion: CDDA 99%
  Signature: DA91E3D9CAB6ED7E29C92D9D4AB75A03CD010D42
FILE: 09. Why'd You Only Call Me When You're High_.flac
  Size: 18505731 Hash: 5F0C57FC9C5D981B0EA085062C598331 Accuracy: -m0
  Conclusion: CDDA 99%
  Signature: 9C23093B134ADECA65B7333E6FCBDE6A84E5F899
FILE: 08. Fireside.flac
  Size: 22951081 Hash: C1DD59AA66432977742D5335B9F3766D Accuracy: -m0
  Conclusion: CDDA 100%
  Signature: 60D93E00181D2BC40366F51D6BB9A9A1FC6584EF

Код:
Код:
REM GENRE Rock
REM DATE 2013
REM DISCID B60A9C0D
PERFORMER "Arctic Monkeys"
TITLE AM
FILE "01. Do I Wanna Know_.flac" WAVE
  TRACK 01 AUDIO
    TITLE "Do I Wanna Know?"
    PERFORMER "Arctic Monkeys"
    INDEX 01 00:00:00
FILE "02. R U Mine_.flac" WAVE
  TRACK 02 AUDIO
    TITLE "R U Mine?"
    PERFORMER "Arctic Monkeys"
    INDEX 01 00:00:00
FILE "03. One for the Road.flac" WAVE
  TRACK 03 AUDIO
    TITLE "One for the Road"
    PERFORMER "Arctic Monkeys"
    INDEX 01 00:00:00
FILE "04. Arabella.flac" WAVE
  TRACK 04 AUDIO
    TITLE Arabella
    PERFORMER "Arctic Monkeys"
    INDEX 01 00:00:00
FILE "05. I Want It All.flac" WAVE
  TRACK 05 AUDIO
    TITLE "I Want It All"
    PERFORMER "Arctic Monkeys"
    INDEX 01 00:00:00
FILE "06. No. 1 Party Anthem.flac" WAVE
  TRACK 06 AUDIO
    TITLE "No. 1 Party Anthem"
    PERFORMER "Arctic Monkeys"
    INDEX 01 00:00:00
FILE "07. Mad Sounds.flac" WAVE
  TRACK 07 AUDIO
    TITLE "Mad Sounds"
    PERFORMER "Arctic Monkeys"
    INDEX 01 00:00:00
FILE "08. Fireside.flac" WAVE
  TRACK 08 AUDIO
    TITLE Fireside
    PERFORMER "Arctic Monkeys"
    INDEX 01 00:00:00
FILE "09. Why'd You Only Call Me When You're High_.flac" WAVE
  TRACK 09 AUDIO
    TITLE "Why'd You Only Call Me When You're High?"
    PERFORMER "Arctic Monkeys"
    INDEX 01 00:00:00
FILE "10. Snap Out of It.flac" WAVE
  TRACK 10 AUDIO
    TITLE "Snap Out of It"
    PERFORMER "Arctic Monkeys"
    INDEX 01 00:00:00
FILE "11. Knee Socks.flac" WAVE
  TRACK 11 AUDIO
    TITLE "Knee Socks"
    PERFORMER "Arctic Monkeys"
    INDEX 01 00:00:00
FILE "12. I Wanna Be Yours.flac" WAVE
  TRACK 12 AUDIO
    TITLE "I Wanna Be Yours"
    PERFORMER "Arctic Monkeys"
    INDEX 01 00:00:00
FILE "13. 2013.flac" WAVE
  TRACK 13 AUDIO
    TITLE 2013
    PERFORMER "Arctic Monkeys"
    INDEX 01 00:00:00
Код:
Код:
[CUETools log; Date: 13.01.2014 7:09:28; Version: 2.1.4]
[CTDB TOCID: EJk9uj3wiMCdTFinun9U8nc11y0-] found.
Track | CTDB Status
  1   | (15/16) Accurately ripped
  2   | (15/16) Accurately ripped
  3   | (15/16) Accurately ripped
  4   | (15/16) Accurately ripped
  5   | (15/16) Accurately ripped
  6   | (15/16) Accurately ripped
  7   | (15/16) Accurately ripped
  8   | (15/16) Accurately ripped
  9   | (15/16) Accurately ripped
 10   | (15/16) Accurately ripped
 11   | (15/16) Accurately ripped
 12   | (15/16) Accurately ripped
 13   | (15/16) Accurately ripped
[AccurateRip ID: 00164f3a-00dd12a9-b60a9c0d] found.
Track   [  CRC   |   V2   ] Status
 01     [2a313695|5bee7ea5] (0+3/6) Accurately ripped
 02     [71603526|7192f3cc] (0+3/6) Accurately ripped
 03     [132de3d2|6a82c24b] (0+3/6) Accurately ripped
 04     [2bdb65b3|005c57e4] (0+3/6) Accurately ripped
 05     [cfc6398c|3c53d984] (0+3/6) Accurately ripped
 06     [b34d9f70|89fd0993] (0+3/6) Accurately ripped
 07     [89a7fb0a|545bf794] (0+3/6) Accurately ripped
 08     [d4ad7d7d|243919e9] (0+3/6) Accurately ripped
 09     [fdff95a9|729e45c9] (0+3/6) Accurately ripped
 10     [32101d9b|32fac60d] (0+3/6) Accurately ripped
 11     [6be58e11|43b7b385] (0+3/6) Accurately ripped
 12     [bb1f050c|897ea7f3] (0+3/6) Accurately ripped
 13     [e3b55646|54a489cd] (0+3/6) Accurately ripped
Offsetted by -12:
 01     [092346c4] (0/6) No match (V2 was not tested)
 02     [95744b18] (0/6) No match (V2 was not tested)
 03     [4f3389d9] (0/6) No match (V2 was not tested)
 04     [30f25da3] (0/6) No match (V2 was not tested)
 05     [6d1a0634] (0/6) No match (V2 was not tested)
 06     [0762b454] (0/6) No match (V2 was not tested)
 07     [b786017f] (0/6) No match (V2 was not tested)
 08     [2e88cfbb] (0/6) No match (V2 was not tested)
 09     [242fad17] (0/6) No match (V2 was not tested)
 10     [c5097af0] (0/6) No match (V2 was not tested)
 11     [5bb6d151] (0/6) No match (V2 was not tested)
 12     [2ab9a3ca] (0/6) No match (V2 was not tested)
 13     [2e80ffee] (0/6) No match (V2 was not tested)

Track Peak [ CRC32  ] [W/O NULL] [  LOG   ]
 --   96,8 [57F709DD] [588267A4]
 01   96,6 [A60C78C6] [07FD8424]   CRC32
 02   96,6 [688A1E19] [E8101AC6]   CRC32
 03   96,6 [495B23BB] [84391980]   CRC32
 04   96,6 [D26715C2] [703A35F2]   CRC32
 05   96,6 [BB6C573A] [01889282]   CRC32
 06   96,6 [D9E242CE] [7CCB78D9]   CRC32
 07   96,6 [48D49241] [ACA9BEDE]   CRC32
 08   96,6 [5DDB05B0] [75B8C642]   CRC32
 09   96,6 [6959FAE2] [61E24145]   CRC32
 10   96,6 [032EFB7B] [7D13DE25]   CRC32
 11   96,6 [FC10D2B2] [011C555D]   CRC32
 12   96,6 [564DE7B3] [1F9BDD9F]   CRC32
 13   96,8 [4D95C330] [0CCBC6B4]   CRC32

Правила, инструкции, FAQ!!!
Торрент  Добавлен [16 мар 2014, 00:49] Скачать торрент Магнет ссылка
Скачать торрент
[ Размер 12.53 КБ / Просмотров 190 ]

Статус  
 
Размер  282.44 МБ
Приватный: Нет (DHT включён)
.torrent скачан  5
 


     Отправить личное сообщение
   
Страница 1 из 1
Показать сообщения за:  Поле сортировки  
Начать новую тему Ответить на тему


Сейчас этот форум просматривают: нет зарегистрированных пользователей и гости: 0


Вы не можете начинать темы
Вы не можете отвечать на сообщения
Вы не можете редактировать свои сообщения
Вы не можете удалять свои сообщения
Вы не можете добавлять вложения

Перейти:  
cron
cron