Начать новую тему Ответить на тему
Статистика раздачи
Размер: 265.99 МБ | Добавлен: 16 мар 2014, 00:54 | Скачали: 0
Сидеров: 1  [0 байт/сек]    Личеров: 0  [0 байт/сек]
Пред. тема | След. тема 

Автор
Сообщение

СообщениеДобавлено: 16 мар 2014, 00:54 

Ответить с цитатой 

Arctic Monkeys - AM (2013)

Страна: United Kingdom (Sheffield, England)
Страна-производитель диска: USA
Жанр: Indie Rock, Britpop
Год издания: 2013
Издатель (лейбл): Domino Record
Номер по каталогу: WIGCD317
Аудиокодек: FLAC (*.flac)
Тип рипа: track+.cue
Битрейт аудио:lossless
Источник (релизер): Scene
Наличие сканов в содержимом раздачи: No
Продолжительность: 00:41:47
Описание: Вот и дождались в хорошем качестве пятый диск Arctic Monkeys. В интервью на BBC Radio 1, фронтмен Arctic Monkeys Алекс Тернер заявил, что название альбома было вдохновлено ​​альбом-компиляцией 1985 года Velvet Underground. "Я на самом деле украл его у Velvet Underground". АМ получил в целом благоприятные отзывы от музыкальных критиков. На Metacritic, который присваивает рейтинг на основе 100 отзывов от основных критиков, альбом получил средний балл - 76.

Треклист:
01. Do I Wanna Know? (04:32)
02. R U Mine? (03:22)
03. One For The Road (03:26)
04. Arabella (03:27)
05. I Want It All (03:04)
06. No. 1 Party Anthem (04:03)
07. Mad Sounds (03:35)
08. Fireside (03:01)
09. Why'd You Only Call Me When You're High? (02:41)
10. Snap Out of It (03:13)
11. Knee Socks (04:18)
12. I Wanna Be Yours (03:04)
Код:
Код:
REM COMMENT "CUETools generated dummy CUE sheet"
PERFORMER "Arctic Monkeys"
TITLE "AM"
REM DATE 2013
REM DISCNUMBER 1
REM TOTALDISCS 1
REM GENRE "Indie"
FILE "01. Do I Wanna Know.flac" WAVE
  TRACK 01 AUDIO
    PERFORMER "Arctic Monkeys"
    TITLE "Do I Wanna Know?"
    INDEX 01 00:00:00
FILE "02. R U Mine.flac" WAVE
  TRACK 02 AUDIO
    PERFORMER "Arctic Monkeys"
    TITLE "R U Mine?"
    INDEX 01 00:00:00
FILE "03. One For the Road.flac" WAVE
  TRACK 03 AUDIO
    PERFORMER "Arctic Monkeys"
    TITLE "One For the Road"
    INDEX 01 00:00:00
FILE "04. Arabella.flac" WAVE
  TRACK 04 AUDIO
    PERFORMER "Arctic Monkeys"
    TITLE "Arabella"
    INDEX 01 00:00:00
FILE "05. I Want It All.flac" WAVE
  TRACK 05 AUDIO
    PERFORMER "Arctic Monkeys"
    TITLE "I Want It All"
    INDEX 01 00:00:00
FILE "06. No. 1 Party Anthem.flac" WAVE
  TRACK 06 AUDIO
    PERFORMER "Arctic Monkeys"
    TITLE "No. 1 Party Anthem"
    INDEX 01 00:00:00
FILE "07. Mad Sounds.flac" WAVE
  TRACK 07 AUDIO
    PERFORMER "Arctic Monkeys"
    TITLE "Mad Sounds"
    INDEX 01 00:00:00
FILE "08. Fireside.flac" WAVE
  TRACK 08 AUDIO
    PERFORMER "Arctic Monkeys"
    TITLE "Fireside"
    INDEX 01 00:00:00
FILE "09. Why'd You Only Call Me When You're High.flac" WAVE
  TRACK 09 AUDIO
    PERFORMER "Arctic Monkeys"
    TITLE "Why'd You Only Call Me When You're High?"
    INDEX 01 00:00:00
FILE "10. Snap Out of It.flac" WAVE
  TRACK 10 AUDIO
    PERFORMER "Arctic Monkeys"
    TITLE "Snap Out of It"
    INDEX 01 00:00:00
FILE "11. Knee Socks.flac" WAVE
  TRACK 11 AUDIO
    PERFORMER "Arctic Monkeys"
    TITLE "Knee Socks"
    INDEX 01 00:00:00
FILE "12. I Wanna Be Yours.flac" WAVE
  TRACK 12 AUDIO
    PERFORMER "Arctic Monkeys"
    TITLE "I Wanna Be Yours"
    INDEX 01 00:00:00

Код:
Код:
Exact Audio Copy V1.0 beta 3 from 29. August 2011

Отчёт EAC об извлечении, выполненном 2. сентября 2013, 21:55

Arctic Monkeys / Am

Дисковод: PIONEER BD-RW   BDR-206   Adapter: 3  ID: 0

Режим чтения                 : Достоверность
Использование точного потока : Да
Отключение кэша аудио        : Да
Использование указателей C2  : Нет

Коррекция смещения при чтении                     : 667
Способность читать области Lead-in и Lead-out     : Нет
Заполнение пропущенных сэмплов тишиной            : Да
Удаление блоков с тишиной в начале и конце        : Нет
При вычислениях CRC использовались нулевые сэмплы : Да
Интерфейс                                         : Встроенный Win32-интерфейс для Win NT/2000

Выходной формат          : Пользовательский кодировщик
Выбранный битрейт        : 768 kBit/s
Качество                 : Высокий
Добавление ID3-тега      : Да
Утилита сжатия           : C:\Program Files\Exact Audio Copy\FLAC\FLAC.EXE
Дополнительные параметры : -8 -V -T "Artist=%artist%" -T "Title=%title%" -T "Album=%albumtitle%" -T "DATE=%year%" -T "TRACKNUMBER=%tracknr%" -T "GENRE=%genre%" -T "COMMENT=%comment%" -T "BAND=%albuminterpret%" -T "ALBUMARTIST=%albuminterpret%" -T "COMPOSER=%composer%" %haslyrics%--tag-from-file=LYRICS="%lyricsfile%"%haslyrics% -T "DISCNUMBER=%cdnumber%" -T "TOTALDISCS=%totalcds%" -T "TOTALTRACKS=%numtracks%" %hascover%--picture="%coverfile%"%hascover% %source% -o %dest%

TOC извлечённого CD

     Трек |   Старт  | Длительность | Начальный сектор | Конечный сектор
    ---------------------------------------------------------------------
       1  |  0:00.00 |    4:32.29   |           0      |      20428
       2  |  4:32.29 |    3:21.55   |       20429      |      35558
       3  |  7:54.09 |    3:26.03   |       35559      |      51011
       4  | 11:20.12 |    3:27.27   |       51012      |      66563
       5  | 14:47.39 |    3:04.26   |       66564      |      80389
       6  | 17:51.65 |    4:03.05   |       80390      |      98619
       7  | 21:54.70 |    3:35.05   |       98620      |     114749
       8  | 25:30.00 |    3:01.02   |      114750      |     128326
       9  | 28:31.02 |    2:41.10   |      128327      |     140411
      10  | 31:12.12 |    3:12.66   |      140412      |     154877
      11  | 34:25.03 |    4:17.43   |      154878      |     174195
      12  | 38:42.46 |    3:04.02   |      174196      |     187997

Трек  1, Индекс  1

     Пиковый уровень 96.6 %
     Скорость извлечения 3.0 X
     Качество трека 100.0 %
     Копирование... OK

Трек  2, Индекс  1

     Пиковый уровень 96.6 %
     Скорость извлечения 3.1 X
     Качество трека 100.0 %
     Копирование... OK

Трек  3, Индекс  1

     Пиковый уровень 96.6 %
     Скорость извлечения 3.4 X
     Качество трека 100.0 %
     Копирование... OK

Трек  4, Индекс  1

     Пиковый уровень 96.6 %
     Скорость извлечения 3.5 X
     Качество трека 100.0 %
     Копирование... OK

Трек  5, Индекс  1

     Пиковый уровень 96.6 %
     Скорость извлечения 3.6 X
     Качество трека 100.0 %
     Копирование... OK

Трек  6, Индекс  1

     Пиковый уровень 96.6 %
     Скорость извлечения 4.0 X
     Качество трека 100.0 %
     Копирование... OK

Трек  7, Индекс  1

     Пиковый уровень 96.6 %
     Скорость извлечения 4.0 X
     Качество трека 100.0 %
     Копирование... OK

Трек  8, Индекс  1

     Пиковый уровень 96.6 %
     Скорость извлечения 4.1 X
     Качество трека 100.0 %
     Копирование... OK

Трек  9, Индекс  1

     Пиковый уровень 96.6 %
     Скорость извлечения 4.1 X
     Качество трека 100.0 %
     Копирование... OK

Трек 10, Индекс  1

     Пиковый уровень 96.6 %
     Скорость извлечения 3.8 X
     Качество трека 99.9 %
     Копирование... OK

Трек 11, Индекс  1

     Пиковый уровень 96.6 %
     Скорость извлечения 4.7 X
     Качество трека 100.0 %
     Копирование... OK

Трек 12, Индекс  1

     Пиковый уровень 96.6 %
     Скорость извлечения 4.6 X
     Качество трека 100.0 %
     Копирование... OK

AccurateRip: сводка

Трек  1  отсутствует в базе данных
Трек  2  отсутствует в базе данных
Трек  3  отсутствует в базе данных
Трек  4  отсутствует в базе данных
Трек  5  отсутствует в базе данных
Трек  6  отсутствует в базе данных
Трек  7  отсутствует в базе данных
Трек  8  отсутствует в базе данных
Трек  9  отсутствует в базе данных
Трек 10  отсутствует в базе данных
Трек 11  отсутствует в базе данных
Трек 12  отсутствует в базе данных

Ни одного трека нет в базе AccurateRip

Ошибок не произошло

Конец отчёта

==== Контрольная сумма отчёта E6CA30D5D9B01DB4002EC3692B4B4475D136FCF671F5F4CDE25BB0B66A31A038 ====
Код:
Код:
-----------------------

DON'T MODIFY THIS FILE

-----------------------

PERFORMER: auCDtect Task Manager, ver. 1.6.0 RC1 build 1.6.0.1
Copyright (c) 2008-2010 y-soft. All rights reserved
http:/y-soft.org

ANALYZER: auCDtect: CD records authenticity detector, version 0.8.2
Copyright (c) 2004 Oleg Berngardt. All rights reserved.
Copyright (c) 2004 Alexander Djourik. All rights reserved.

FILE: 12. I Wanna Be Yours.flac
  Size: 18102265 Hash: CAB717AB2FE03E588B98E4F5CDDF5769 Accuracy: -m0
  Conclusion: CDDA 100%
  Signature: 954C15BFC43EC4E49CF21E81F8C5A7F1E083CEC7
FILE: 11. Knee Socks.flac
  Size: 27958549 Hash: 64AE5C8B8A3A600691984C8EB9732998 Accuracy: -m0
  Conclusion: CDDA 100%
  Signature: 683186184F8290AB566DCE9C5461625784DD5BD1
FILE: 10. Snap Out of It.flac
  Size: 21838762 Hash: 44E2F5837C497F7CFB54EA06716E40F5 Accuracy: -m0
  Conclusion: CDDA 99%
  Signature: 5D0729D05D3544A0BFC526DC78C5D527685DF87D
FILE: 09. Why'd You Only Call Me When You're High.flac
  Size: 18515831 Hash: 89E598834409ADB66458168F9317F3ED Accuracy: -m0
  Conclusion: CDDA 99%
  Signature: 41C4FD02ACA43B812A65B72BCD3D19A84E421953
FILE: 08. Fireside.flac
  Size: 22958639 Hash: ADC8EC2B907AA48238443934EB143DCD Accuracy: -m0
  Conclusion: CDDA 100%
  Signature: 62C4A7E902E3B38905C0D43B141EE87FE280C1C1
FILE: 07. Mad Sounds.flac
  Size: 20194208 Hash: 5FB497D3C888D5A9108785DAA8118C1D Accuracy: -m0
  Conclusion: CDDA 100%
  Signature: C068AF116A93938E6815D97BF482502A034B6272
FILE: 06. No. 1 Party Anthem.flac
  Size: 27372983 Hash: A3568F55A90E0B457F1F6E222BC5D899 Accuracy: -m0
  Conclusion: CDDA 100%
  Signature: 3C804D90098BDCB5F0AAAB615CBD89824B30DB7F
FILE: 05. I Want It All.flac
  Size: 21671440 Hash: BAF01F0DC72BF71A7AF025A3916DF182 Accuracy: -m0
  Conclusion: CDDA 100%
  Signature: 5B8FBA338A667948CE074A0537B3433A7E6E6250
FILE: 04. Arabella.flac
  Size: 23416680 Hash: EE0D2D1AB4C35E849955E41E28C73BF0 Accuracy: -m0
  Conclusion: CDDA 100%
  Signature: 89A67D25D13300273B38DC6642EEE05EE2766BC7
FILE: 03. One For the Road.flac
  Size: 23486780 Hash: F10FB4B2768EF9472CE74D61A8CF26C9 Accuracy: -m0
  Conclusion: CDDA 100%
  Signature: 74C0AD23F3C8F034020A2678A791C9DA4C1ACA27
FILE: 02. R U Mine.flac
  Size: 24537672 Hash: EEF5FDFB230E239272C2D3F1A9DF20E0 Accuracy: -m0
  Conclusion: CDDA 100%
  Signature: 3EDAF6E6E841E135E710ED4E8EE8F34C9F677D24
FILE: 01. Do I Wanna Know.flac
  Size: 28758293 Hash: 3D0A6C8B2737EAF548887E2F3D614666 Accuracy: -m0
  Conclusion: MPEG 95%
  Signature: 059E1E21324FBA3157EF805B98398202450B6EF8
Правила, инструкции, FAQ!!!
Торрент  Добавлен [16 мар 2014, 00:54] Скачать торрент Магнет ссылка
Скачать торрент
[ Размер 12.04 КБ / Просмотров 24 ]

Статус  
 
Размер  265.99 МБ
Приватный: Нет (DHT включён)
.torrent скачан  0
 


     Отправить личное сообщение
   
Страница 1 из 1
Показать сообщения за:  Поле сортировки  
Начать новую тему Ответить на тему


Сейчас этот форум просматривают: нет зарегистрированных пользователей и гости: 0


Вы не можете начинать темы
Вы не можете отвечать на сообщения
Вы не можете редактировать свои сообщения
Вы не можете удалять свои сообщения
Вы не можете добавлять вложения

Перейти:  
cron