Начать новую тему Ответить на тему
Статистика раздачи
Размер: 497.95 МБ | Добавлен: 05 дек 2013, 10:37 | Скачали: 1
Сидеров: 2  [0 байт/сек]    Личеров: 1  [0 байт/сек]
Пред. тема | След. тема 

Автор
Сообщение

СообщениеДобавлено: 05 дек 2013, 10:37 

Ответить с цитатой 

Arc Angel - Harlequins Of Light (2013)

Год: 2013
Страна-производитель диска: Japan
Издатель (лейбл): Avalon
Номер по каталогу #: MICP-11113
Жанр: Rock, Melodic rock
Продолжительность: 00:54:52

Кодек: FLAC(*.flac)
Битрейт: Lossless
Тип рипа: image+.cue
Спасибо: raduga, kolushew

Треклист:
01. Harlequins Of Light
02. As Far As The Eye Can See
03. War (Battle Wounds Of Life)
04. Voice Of Illuminati
05. Through The Night
06. Amnesia
07. Fortune Teller 2
08. California Daze
09. Tonight… Forever
10. Get To You
11. Diamonds And Gold
12. Legend Of The Mary Celeste
13. California Daze (acoustic) - bonus track for Japan
Код:
Код:
Exact Audio Copy V1.0 beta 3 from 29. August 2011

EAC extraction logfile from 21. August 2013, 19:14

Arc Angel / Harlequins Of Light

Used drive  : SlimtypeDVD A  DS8A5SH   Adapter: 0  ID: 1

Read mode               : Secure
Utilize accurate stream : Yes
Defeat audio cache      : Yes
Make use of C2 pointers : No

Read offset correction                      : 6
Overread into Lead-In and Lead-Out          : No
Fill up missing offset samples with silence : Yes
Delete leading and trailing silent blocks   : No
Null samples used in CRC calculations       : Yes
Used interface                              : Native Win32 interface for Win NT & 2000

Used output format              : User Defined Encoder
Selected bitrate                : 320 kBit/s
Quality                         : High
Add ID3 tag                     : No
Command line compressor         : C:\Program Files (x86)\Exact Audio Copy\Flac\flac.exe
Additional command line options : -V -8 -T "Date=%year%" -T "Genre=%genre%" %source%

TOC of the extracted CD

     Track |   Start  |  Length  | Start sector | End sector
    ---------------------------------------------------------
        1  |  0:00.00 |  4:29.11 |         0    |    20185
        2  |  4:29.11 |  4:15.12 |     20186    |    39322
        3  |  8:44.23 |  4:11.40 |     39323    |    58187
        4  | 12:55.63 |  3:54.71 |     58188    |    75808
        5  | 16:50.59 |  4:07.53 |     75809    |    94386
        6  | 20:58.37 |  4:06.69 |     94387    |   112905
        7  | 25:05.31 |  4:13.55 |    112906    |   131935
        8  | 29:19.11 |  3:31.31 |    131936    |   147791
        9  | 32:50.42 |  5:10.55 |    147792    |   171096
       10  | 38:01.22 |  3:32.57 |    171097    |   187053
       11  | 41:34.04 |  4:45.37 |    187054    |   208465
       12  | 46:19.41 |  4:57.31 |    208466    |   230771
       13  | 51:16.72 |  3:35.38 |    230772    |   246934

Range status and errors

Selected range

     Filename D:\My Music\Arc Angel - 2013 Harlequins Of Light\Arc Angel - Harlequins Of Light.wav

     Peak level 99.9 %
     Extraction speed 4.3 X
     Range quality 99.9 %
     Test CRC 1B49FFCB
     Copy CRC 1B49FFCB
     Copy OK

No errors occurred

AccurateRip summary

Track  1  not present in database
Track  2  not present in database
Track  3  not present in database
Track  4  not present in database
Track  5  not present in database
Track  6  not present in database
Track  7  not present in database
Track  8  not present in database
Track  9  not present in database
Track 10  not present in database
Track 11  not present in database
Track 12  not present in database
Track 13  not present in database

None of the tracks are present in the AccurateRip database

End of status report

==== Log checksum 3C327A172C59B9E8AA208BF47C24D90DD6592D28FE8BC5C61917F87A7C0A9DBA ====
Код:
Код:
-----------------------

DON'T MODIFY THIS FILE

-----------------------

PERFORMER: auCDtect Task Manager, ver. 1.6.0 RC1 build 1.6.0.1
Copyright (c) 2008-2010 y-soft. All rights reserved
http:/y-soft.org

ANALYZER: auCDtect: CD records authenticity detector, version 0.8.2
Copyright (c) 2004 Oleg Berngardt. All rights reserved.
Copyright (c) 2004 Alexander Djourik. All rights reserved.

FILE: Arc Angel - Harlequins Of Light.flac
  Size: 425984657 Hash: 5F000D2A499AC14CCEEAE8EF36100BF3 Accuracy: -m0
  Conclusion: CDDA 100%
  Signature: A7EC75240B4BCB23124D4BA00DAF5630FB24C8DB
Код:
Код:
REM GENRE "Crossover Prog"
REM DATE 2013
REM DISCID B20CDC0D
REM COMMENT "ExactAudioCopy v1.0b3"
PERFORMER "Arc Angel"
TITLE "Harlequins Of Light"
FILE "Arc Angel - Harlequins Of Light.flac" WAVE
  TRACK 01 AUDIO
    TITLE "Harlequins Of Light"
    PERFORMER "Arc Angel"
    INDEX 01 00:00:00
  TRACK 02 AUDIO
    TITLE "As Far As The Eye Can See"
    PERFORMER "Arc Angel"
    INDEX 01 04:29:11
  TRACK 03 AUDIO
    TITLE "War (Battle Wounds Of Life)"
    PERFORMER "Arc Angel"
    INDEX 01 08:44:23
  TRACK 04 AUDIO
    TITLE "Voice Of Illuminati"
    PERFORMER "Arc Angel"
    INDEX 01 12:55:63
  TRACK 05 AUDIO
    TITLE "Through The Night"
    PERFORMER "Arc Angel"
    INDEX 01 16:50:59
  TRACK 06 AUDIO
    TITLE "Amnesia"
    PERFORMER "Arc Angel"
    INDEX 01 20:58:37
  TRACK 07 AUDIO
    TITLE "Fortune Teller 2"
    PERFORMER "Arc Angel"
    INDEX 01 25:05:31
  TRACK 08 AUDIO
    TITLE "California Daze"
    PERFORMER "Arc Angel"
    INDEX 01 29:19:11
  TRACK 09 AUDIO
    TITLE "Tonight ...Forever"
    PERFORMER "Arc Angel"
    INDEX 01 32:50:42
  TRACK 10 AUDIO
    TITLE "Get To You"
    PERFORMER "Arc Angel"
    INDEX 01 38:01:22
  TRACK 11 AUDIO
    TITLE "Diamonds And Gold"
    PERFORMER "Arc Angel"
    INDEX 01 41:34:04
  TRACK 12 AUDIO
    TITLE "Legend Of The Mary Celeste"
    PERFORMER "Arc Angel"
    INDEX 01 46:19:41
  TRACK 13 AUDIO
    TITLE "California Daze (Acoustic Re-Mix)"
    PERFORMER "Arc Angel"
    INDEX 01 51:16:72

Правила, инструкции, FAQ!!!
Торрент  Добавлен [05 дек 2013, 10:37] Скачать торрент Магнет ссылка
Скачать торрент
[ Размер 20.96 КБ / Просмотров 27 ]

Статус  
 
Размер  497.95 МБ
Приватный: Нет (DHT включён)
.torrent скачан  1
 


     Отправить личное сообщение
   
Страница 1 из 1
Показать сообщения за:  Поле сортировки  
Начать новую тему Ответить на тему


Сейчас этот форум просматривают: нет зарегистрированных пользователей и гости: 0


Вы не можете начинать темы
Вы не можете отвечать на сообщения
Вы не можете редактировать свои сообщения
Вы не можете удалять свои сообщения
Вы не можете добавлять вложения

Перейти:  
cron
cron