Начать новую тему Ответить на тему
Статистика раздачи
Размер: 2.3 ГБ | Добавлен: 16 мар 2014, 00:19 | Скачали: 0
Сидеров: 0  [0 байт/сек]    Личеров: 0  [0 байт/сек]
Пред. тема | След. тема 

Автор
Сообщение

СообщениеДобавлено: 16 мар 2014, 00:19 

Ответить с цитатой 


Antimatter - 2001 - 2012

Год:
2001 - 2012 | Жанр: Psychedelic Atmospheric Rock | Страна: United Kingdom
Кодек: FLAC, APE | Битрейт: Lossless | Тип рипа: image + .cue, tracks+.cue | Продолжительность: 06:51:51
Есть группы, музыка которых способна удивительным образом отражать состояние души. Она чарует и умиротворяет, восхищает и заставляет мечтать,
она – союзник в грусти и путешествии по собственному внутреннему миру. Музыка Antimatter настолько многогранна, что порой кажется непостижимой до конца.
Треклист:

01. Saviour
02. Holocaust
03. Over Your Shoulder
04. Psalms
05. God Is Coming
06. Angelic
07. Flowers
08. The Last Laugh
09. Going Nowhere
10. Over Your Shoulder (acoustic)
11. Flowers (acoustic)

Продолжительность: 00:52:12
Код:
Код:
EAC extraction logfile from 17. December 2006, 20:26 for CD
Antimatter / Saviour

Used drive  : PLEXTOR CD-ROM PX-54TA   Adapter: 1  ID: 1
Read mode   : Secure with NO C2, accurate stream, disable cache
Read offset correction : 12
Overread into Lead-In and Lead-Out : No

Used output format : C:\Program Files\FLAC\flac.exe   (User Defined Encoder)
                     32 kBit/s
                     Additional command line options : -6 -V -T "artist=%a" -T "title=%t" -T "album=%g" -T "date=%y" -T "tracknumber=%n" -T "genre=%m" -T "comment=EAC 0.95beta4 / FLAC 1.1.2a q6" %s

Other options      :
    Fill up missing offset samples with silence : Yes
    Delete leading and trailing silent blocks : No
    Installed external ASPI interface

Range status and errors
Selected range
     Filename C:\Music\ANTIMATTER-SAVIOUR\Antimatter - Saviour.flac

     Peak level 98.8 %
     Range quality 100.0 %
     CRC 13AF2776
     Copy OK

No errors occured

End of status report
Код:
Код:
-----------------------

DON'T MODIFY THIS FILE

-----------------------

PERFORMER: auCDtect Task Manager, ver. 1.5.1RC6 build 1.5.1.7
Copyright (c) 2008-2010 y-soft. All rights reserved
http:/y-soft.org

ANALYZER: auCDtect: CD records authenticity detector, version 0.8.2
Copyright (c) 2004 Oleg Berngardt. All rights reserved.
Copyright (c) 2004 Alexander Djourik. All rights reserved.

FILE: Antimatter - Saviour.flac
  Size: 297299318 Hash: 125ED2410CA051A7D28C09D9615B2AE1 Accuracy: -m0
  Conclusion: CDDA 100%
  Signature: D348FD04DD9FE81C99733B902BEF00839E5E8B85

Треклист:

1 Lights Out
2 Everything You Know is Wrong
3 The Art Of A Soft Landing
4 Expire
5 In Stone
6 Reality Clash
7 Dream
8 Terminal

Продолжительность: 00:49:52
Спасибо: cheburatilo
Код:
Код:
EAC extraction logfile from 15. December 2007, 12:16 for CD
Antimatter / Lights Out

Used drive  : HL-DT-STDVDRAM GSA-T10N   Adapter: 0  ID: 0
Read mode   : Secure with NO C2, accurate stream, disable cache
Read offset correction : 667
Overread into Lead-In and Lead-Out : No

Used output format : Internal WAV Routines
                     44.100 Hz; 16 Bit; Stereo

Other options      :
    Fill up missing offset samples with silence : Yes
    Delete leading and trailing silent blocks : No
    Native Win32 interface for Win NT & 2000

Range status and errors
Selected range
     Filename C:\Music\!!EAC_TEMP\Antimatter - Lights Out.wav

     Peak level 100.0 %
     Range quality 100.0 %
     CRC AC8BADDF
     Copy OK

No errors occured

End of status report
Код:
Код:
-----------------------

DON'T MODIFY THIS FILE

-----------------------

PERFORMER: auCDtect Task Manager, ver. 1.5.1RC6 build 1.5.1.7
Copyright (c) 2008-2010 y-soft. All rights reserved
http:/y-soft.org

ANALYZER: auCDtect: CD records authenticity detector, version 0.8.2
Copyright (c) 2004 Oleg Berngardt. All rights reserved.
Copyright (c) 2004 Alexander Djourik. All rights reserved.

FILE: Antimatter - Lights Out.ape
  Size: 269370912 Hash: 9B14BA9F55E1B9E02BA2F84B05E85C56 Accuracy: -m0
  Conclusion: CDDA 100%
  Signature: 3A24255AADE4EAA24E4169DCA4E3F786EA97B6E7
Треклист:

01. Planetary Confinement
02. The Weight of the World
03. Line of Fire
04. Epitaph
05. Mr White
06. A Portrait of a Young Man As An Artist
07. Relapse
08. Legions
09. Eternity Part 24

Продолжительность: 00:47:15
Спасибо: cheburatilo
Код:
Код:
EAC extraction logfile from 15. December 2007, 12:33 for CD
Antimatter / Planetary Confinement

Used drive  : HL-DT-STDVDRAM GSA-T10N   Adapter: 0  ID: 0
Read mode   : Secure with NO C2, accurate stream, disable cache
Read offset correction : 667
Overread into Lead-In and Lead-Out : No

Used output format : Internal WAV Routines
                     44.100 Hz; 16 Bit; Stereo

Other options      :
    Fill up missing offset samples with silence : Yes
    Delete leading and trailing silent blocks : No
    Native Win32 interface for Win NT & 2000

Range status and errors
Selected range
     Filename C:\Music\!!EAC_TEMP\Antimatter - Planetary Confinement.wav

     Peak level 99.8 %
     Range quality 100.0 %
     CRC 0D993F6F
     Copy OK

No errors occured

End of status report
Код:
Код:
-----------------------

DON'T MODIFY THIS FILE

-----------------------

PERFORMER: auCDtect Task Manager, ver. 1.5.1RC6 build 1.5.1.7
Copyright (c) 2008-2010 y-soft. All rights reserved
http:/y-soft.org

ANALYZER: auCDtect: CD records authenticity detector, version 0.8.2
Copyright (c) 2004 Oleg Berngardt. All rights reserved.
Copyright (c) 2004 Alexander Djourik. All rights reserved.

FILE: Antimatter - Planetary Confinement.ape
  Size: 266851900 Hash: 627A7D2674B8C8EF58BCEAE41348507B Accuracy: -m0
  Conclusion: CDDA 100%
  Signature: 5FDE03485A3104299DD072FDF1C0B43CA2AC6B3F

Треклист:

1. Redemption
2. Another Face In A Window
3. Ghosts
4. The Freak Show
5. Landlocked
6. Conspire
7. Leaving Eden
8. The Immaculate Misconception
9. Fighting For A Lost Cause

Продолжительность: 00:47:44
Спасибо: cheburatilo
Код:
Код:
EAC extraction logfile from 15. December 2007, 12:00 for CD
Antimatter / Leaving Eden

Used drive  : HL-DT-STDVDRAM GSA-T10N   Adapter: 0  ID: 0
Read mode   : Secure with NO C2, accurate stream, disable cache
Read offset correction : 667
Overread into Lead-In and Lead-Out : No

Used output format : Internal WAV Routines
                     44.100 Hz; 16 Bit; Stereo

Other options      :
    Fill up missing offset samples with silence : Yes
    Delete leading and trailing silent blocks : No
    Native Win32 interface for Win NT & 2000

Range status and errors
Selected range
     Filename C:\Music\!!EAC_TEMP\Antimatter - LeavingEden.wav

     Peak level 99.0 %
     Range quality 99.9 %
     CRC 7CE99A3E
     Copy OK

No errors occured

End of status report
Код:
Код:
-----------------------

DON'T MODIFY THIS FILE

-----------------------

PERFORMER: auCDtect Task Manager, ver. 1.5.1RC6 build 1.5.1.7
Copyright (c) 2008-2010 y-soft. All rights reserved
http:/y-soft.org

ANALYZER: auCDtect: CD records authenticity detector, version 0.8.2
Copyright (c) 2004 Oleg Berngardt. All rights reserved.
Copyright (c) 2004 Alexander Djourik. All rights reserved.

FILE: Antimatter - LeavingEden.ape
  Size: 293071084 Hash: EA5FA6AAC412BAE61FD4DFD02E45E80B Accuracy: -m0
  Conclusion: CDDA 100%
  Signature: F7D03EBBA64D7662954B67A3F5389F58B21B7571
Треклист:

01. Black Sun [Dead Can Dance Tribute]
02. The Art Of A Soft Landing [Acoustic, Enhanced]
03. Far Away [Live]
04. Saviour [Reel To Reel Demo]
05. Landlocked [Mick Moss Remix]
06. In Stone [Acoustic, Enhanced]
07. Epitaph [New Version]
08. Terminal [Duncan Patterson Remix]
09. Mr White [Live]
10. Flowers [New Version]
11. Expire [Lackluster Remix]

Продолжительность: 00:53:06
Код:
Код:
Exact Audio Copy V0.99 prebeta 3 from 28. July 2007

EAC extraction logfile from 27. November 2010, 17:45

Antimatter / Alternative Matter [Disc 1]

Used drive  : Optiarc DVD RW AD-7203A   Adapter: 0  ID: 0

Read mode               : Secure
Utilize accurate stream : Yes
Defeat audio cache      : Yes
Make use of C2 pointers : No

Read offset correction                      : 48
Overread into Lead-In and Lead-Out          : No
Fill up missing offset samples with silence : Yes
Delete leading and trailing silent blocks   : No
Null samples used in CRC calculations       : Yes
Used interface                              : Native Win32 interface for Win NT & 2000
Gap handling                                : Appended to previous track

Used output format              : User Defined Encoder
Selected bitrate                : 128 kBit/s
Quality                         : High
Add ID3 tag                     : No
Command line compressor         : C:\Program Files (x86)\Exact Audio Copy\Flac\flac.exe
Additional command line options : -V -8 -T "artist=%a" -T "title=%t" -T "album=%g" -T "date=%y" -T "tracknumber=%n" -T "genre=%m" %s

TOC of the extracted CD

     Track |   Start  |  Length  | Start sector | End sector
    ---------------------------------------------------------
        1  |  0:00.00 |  5:24.51 |         0    |    24350
        2  |  5:24.51 |  3:17.48 |     24351    |    39173
        3  |  8:42.24 |  5:12.54 |     39174    |    62627
        4  | 13:55.03 |  3:05.06 |     62628    |    76508
        5  | 17:00.09 |  4:44.52 |     76509    |    97860
        6  | 21:44.61 |  5:24.56 |     97861    |   122216
        7  | 27:09.42 |  6:47.69 |    122217    |   152810
        8  | 33:57.36 |  6:02.62 |    152811    |   180022
        9  | 40:00.23 |  3:46.29 |    180023    |   197001
       10  | 43:46.52 |  4:06.12 |    197002    |   215463
       11  | 47:52.64 |  5:13.26 |    215464    |   238964

Track  1

     Filename E:\My uploads\Antimatter - 2010 - Alternative Matter [Disc 1]\01 - Black Sun [Dead Can Dance Tribute].wav

     Pre-gap length  0:00:02.00

     Peak level 89.6 %
     Track quality 100.0 %
     Test CRC 4EC109BC
     Copy CRC 4EC109BC
     Track not present in AccurateRip database
     Copy OK

Track  2

     Filename E:\My uploads\Antimatter - 2010 - Alternative Matter [Disc 1]\02 - The Art Of A Soft Landing [Acoustic, Enhanced].wav

     Peak level 96.9 %
     Track quality 100.0 %
     Test CRC 98796EEF
     Copy CRC 98796EEF
     Track not present in AccurateRip database
     Copy OK

Track  3

     Filename E:\My uploads\Antimatter - 2010 - Alternative Matter [Disc 1]\03 - Far Away [Live].wav

     Peak level 96.9 %
     Track quality 100.0 %
     Test CRC 770FA951
     Copy CRC 770FA951
     Track not present in AccurateRip database
     Copy OK

Track  4

     Filename E:\My uploads\Antimatter - 2010 - Alternative Matter [Disc 1]\04 - Saviour [Reel To Reel Demo].wav

     Peak level 96.9 %
     Track quality 100.0 %
     Test CRC 916FB20B
     Copy CRC 916FB20B
     Track not present in AccurateRip database
     Copy OK

Track  5

     Filename E:\My uploads\Antimatter - 2010 - Alternative Matter [Disc 1]\05 - Landlocked [Mick Moss Remix].wav

     Peak level 96.9 %
     Track quality 100.0 %
     Test CRC AB5A16E3
     Copy CRC AB5A16E3
     Track not present in AccurateRip database
     Copy OK

Track  6

     Filename E:\My uploads\Antimatter - 2010 - Alternative Matter [Disc 1]\06 - In Stone [Acoustic, Enhanced].wav

     Peak level 96.9 %
     Track quality 99.9 %
     Test CRC 212E7478
     Copy CRC 212E7478
     Track not present in AccurateRip database
     Copy OK

Track  7

     Filename E:\My uploads\Antimatter - 2010 - Alternative Matter [Disc 1]\07 - Epitaph [New Version].wav

     Peak level 96.9 %
     Track quality 100.0 %
     Test CRC AA3FB7EF
     Copy CRC AA3FB7EF
     Track not present in AccurateRip database
     Copy OK

Track  8

     Filename E:\My uploads\Antimatter - 2010 - Alternative Matter [Disc 1]\08 - Terminal [Duncan Patterson Remix].wav

     Peak level 96.9 %
     Track quality 100.0 %
     Test CRC 35E6462F
     Copy CRC 35E6462F
     Track not present in AccurateRip database
     Copy OK

Track  9

     Filename E:\My uploads\Antimatter - 2010 - Alternative Matter [Disc 1]\09 - Mr White [Live].wav

     Peak level 96.9 %
     Track quality 100.0 %
     Test CRC 61372448
     Copy CRC 61372448
     Track not present in AccurateRip database
     Copy OK

Track 10

     Filename E:\My uploads\Antimatter - 2010 - Alternative Matter [Disc 1]\10 - Flowers [New Version].wav

     Peak level 96.9 %
     Track quality 100.0 %
     Test CRC F35EBBF7
     Copy CRC F35EBBF7
     Track not present in AccurateRip database
     Copy OK

Track 11

     Filename E:\My uploads\Antimatter - 2010 - Alternative Matter [Disc 1]\11 - Expire [Lackluster Remix].wav

     Peak level 96.9 %
     Track quality 100.0 %
     Test CRC 5DB541B7
     Copy CRC 5DB541B7
     Track not present in AccurateRip database
     Copy OK

None of the tracks are present in the AccurateRip database

No errors occurred

End of status report
Код:
Код:
-----------------------

DON'T MODIFY THIS FILE

-----------------------

PERFORMER: auCDtect Task Manager, ver. 1.5.1RC6 build 1.5.1.7
Copyright (c) 2008-2010 y-soft. All rights reserved
http:/y-soft.org

ANALYZER: auCDtect: CD records authenticity detector, version 0.8.2
Copyright (c) 2004 Oleg Berngardt. All rights reserved.
Copyright (c) 2004 Alexander Djourik. All rights reserved.

FILE: 11 - Expire [Lackluster Remix].flac
  Size: 31243967 Hash: 7B58CBB3F769517DC0DEC454D419C102 Accuracy: -m0
  Conclusion: CDDA 100%
  Signature: 083F5FA180415C25E13A6315DE8419829227D05B
FILE: 10 - Flowers [New Version].flac
  Size: 26940382 Hash: EAD9FB837CFA6D02B8BA5898427B329C Accuracy: -m0
  Conclusion: CDDA 100%
  Signature: 0E3CA7309646EDEC428A3413535B69C08D20A3BF
FILE: 09 - Mr White [Live].flac
  Size: 25078335 Hash: 8E8DB8C9B8B9BF2B49869F73894F9B21 Accuracy: -m0
  Conclusion: CDDA 100%
  Signature: D1B4B4916D3BFD8864D5F75EC460A2574EC0830D
FILE: 08 - Terminal [Duncan Patterson Remix].flac
  Size: 31621688 Hash: 19913D8FB56D7F5A0029E3CB719CAD85 Accuracy: -m0
  Conclusion: CDDA 99%
  Signature: 5E6F2B8505DC229C76DE1E4AF32AF551F4F78520
FILE: 07 - Epitaph [New Version].flac
  Size: 38527414 Hash: 8198B36FBC39009AAF524E0FA55E7A64 Accuracy: -m0
  Conclusion: CDDA 100%
  Signature: 7E1DBB7C839D6C3DA7C152D5E4D14E9B3448C3E9
FILE: 06 - In Stone [Acoustic, Enhanced].flac
  Size: 28784408 Hash: DE6A07574A9521D60CE40E12178E9FE9 Accuracy: -m0
  Conclusion: CDDA 100%
  Signature: 9F0ED5F6B930C1CCE680E9B431F201173BA08907
FILE: 05 - Landlocked [Mick Moss Remix].flac
  Size: 29935309 Hash: F3B13414410B50250834A3B78FC7464F Accuracy: -m0
  Conclusion: CDDA 76%
  Signature: 9973882429BBC9DCC6225EBA8757DE6CDDAB3537
FILE: 04 - Saviour [Reel To Reel Demo].flac
  Size: 21669601 Hash: A29062C74E4ACBEFCE558789A13E4B58 Accuracy: -m0
  Conclusion: CDDA 100%
  Signature: EC6D4E6A102443FC7DBA261D742390BDC937588D
FILE: 03 - Far Away [Live].flac
  Size: 37729323 Hash: 90A554B69FF52C07E6C9A8059667B1B2 Accuracy: -m0
  Conclusion: CDDA 100%
  Signature: FF09FA14C475FAEF6EEAD24D220051D7363188E9
FILE: 02 - The Art Of A Soft Landing [Acoustic, Enhanced].flac
  Size: 20606993 Hash: 82CD6BDAA05C178852C2E3020FE61B4B Accuracy: -m0
  Conclusion: CDDA 100%
  Signature: 18250C423DC68D8B4D7975D8DE6AD0DC8D66A412
FILE: 01 - Black Sun [Dead Can Dance Tribute].flac
  Size: 37690943 Hash: FB45F0503F3E182B0410911C687E3930 Accuracy: -m0
  Conclusion: CDDA 100%
  Signature: F983614A6806D785E65FDEDB4E7F2BD2FEE0296F
Треклист:

01. God Is Coming [Duncan Patterson Remix]
02. Everything You Know Is Wrong [Acoustic, Enhanced]
03. A Portrait Of The Young Man [Enhanced]
04. Flowers [Acoustic]
05. Holocaust [Reel To Reel Demo]
06. The Art Of A Soft Landing [4 Track Demo]
07. Expire [Atrabilis Sunrise Remix]
08. Over Your Shoulder [Acoustic]
09. Dream [4 Track Demo]
10. Lost Control [Acoustic, Enhanced]
11. Epitaph [Orchestral Mix]

Продолжительность: 00:54:02
Код:
Код:
Exact Audio Copy V0.99 prebeta 3 from 28. July 2007

EAC extraction logfile from 27. November 2010, 18:25

Antimatter / Alternative Matter [Disc 2]

Used drive  : Optiarc DVD RW AD-7203A   Adapter: 0  ID: 0

Read mode               : Secure
Utilize accurate stream : Yes
Defeat audio cache      : Yes
Make use of C2 pointers : No

Read offset correction                      : 48
Overread into Lead-In and Lead-Out          : No
Fill up missing offset samples with silence : Yes
Delete leading and trailing silent blocks   : No
Null samples used in CRC calculations       : Yes
Used interface                              : Native Win32 interface for Win NT & 2000
Gap handling                                : Appended to previous track

Used output format              : User Defined Encoder
Selected bitrate                : 128 kBit/s
Quality                         : High
Add ID3 tag                     : No
Command line compressor         : C:\Program Files (x86)\Exact Audio Copy\Flac\flac.exe
Additional command line options : -V -8 -T "artist=%a" -T "title=%t" -T "album=%g" -T "date=%y" -T "tracknumber=%n" -T "genre=%m" %s

TOC of the extracted CD

     Track |   Start  |  Length  | Start sector | End sector
    ---------------------------------------------------------
        1  |  0:00.00 |  6:45.45 |         0    |    30419
        2  |  6:45.45 |  2:58.11 |     30420    |    43780
        3  |  9:43.56 |  5:22.17 |     43781    |    67947
        4  | 15:05.73 |  4:07.26 |     67948    |    86498
        5  | 19:13.24 |  4:48.23 |     86499    |   108121
        6  | 24:01.47 |  4:14.32 |    108122    |   127203
        7  | 28:16.04 |  5:26.57 |    127204    |   151710
        8  | 33:42.61 |  3:24.61 |    151711    |   167071
        9  | 37:07.47 |  5:52.39 |    167072    |   193510
       10  | 43:00.11 |  6:49.44 |    193511    |   224229
       11  | 49:49.55 |  4:12.52 |    224230    |   243181

Track  1

     Filename E:\My uploads\Antimatter - 2010 - Alternative Matter [Disc 2]\01 - God Is Coming [Duncan Patterson Remix].wav

     Pre-gap length  0:00:02.00

     Peak level 96.9 %
     Track quality 100.0 %
     Test CRC 68B8FA9C
     Copy CRC 68B8FA9C
     Track not present in AccurateRip database
     Copy OK

Track  2

     Filename E:\My uploads\Antimatter - 2010 - Alternative Matter [Disc 2]\02 - Everything You Know Is Wrong [Acoustic, Enhanced].wav

     Peak level 96.9 %
     Track quality 100.0 %
     Test CRC C32A4695
     Copy CRC C32A4695
     Track not present in AccurateRip database
     Copy OK

Track  3

     Filename E:\My uploads\Antimatter - 2010 - Alternative Matter [Disc 2]\03 - A Portrait Of The Young Man [Enhanced].wav

     Peak level 96.9 %
     Track quality 100.0 %
     Test CRC 0019FC22
     Copy CRC 0019FC22
     Track not present in AccurateRip database
     Copy OK

Track  4

     Filename E:\My uploads\Antimatter - 2010 - Alternative Matter [Disc 2]\04 - Flowers [Acoustic].wav

     Peak level 94.6 %
     Track quality 100.0 %
     Test CRC 17E71787
     Copy CRC 17E71787
     Track not present in AccurateRip database
     Copy OK

Track  5

     Filename E:\My uploads\Antimatter - 2010 - Alternative Matter [Disc 2]\05 - Holocaust [Reel To Reel Demo].wav

     Peak level 96.4 %
     Track quality 100.0 %
     Test CRC 7A28DA65
     Copy CRC 7A28DA65
     Track not present in AccurateRip database
     Copy OK

Track  6

     Filename E:\My uploads\Antimatter - 2010 - Alternative Matter [Disc 2]\06 - The Art Of A Soft Landing [4 Track Demo].wav

     Peak level 97.4 %
     Track quality 100.0 %
     Test CRC DFDB27CF
     Copy CRC DFDB27CF
     Track not present in AccurateRip database
     Copy OK

Track  7

     Filename E:\My uploads\Antimatter - 2010 - Alternative Matter [Disc 2]\07 - Expire [Atrabilis Sunrise Remix].wav

     Peak level 96.9 %
     Track quality 99.9 %
     Test CRC A07E7A2E
     Copy CRC A07E7A2E
     Track not present in AccurateRip database
     Copy OK

Track  8

     Filename E:\My uploads\Antimatter - 2010 - Alternative Matter [Disc 2]\08 - Over Your Shoulder [Acoustic].wav

     Peak level 97.4 %
     Track quality 100.0 %
     Test CRC ABFA4CF8
     Copy CRC ABFA4CF8
     Track not present in AccurateRip database
     Copy OK

Track  9

     Filename E:\My uploads\Antimatter - 2010 - Alternative Matter [Disc 2]\09 - Dream [4 Track Demo].wav

     Peak level 96.9 %
     Track quality 100.0 %
     Test CRC E60E6E0C
     Copy CRC E60E6E0C
     Track not present in AccurateRip database
     Copy OK

Track 10

     Filename E:\My uploads\Antimatter - 2010 - Alternative Matter [Disc 2]\10 - Lost Control [Acoustic, Enhanced].wav

     Peak level 96.7 %
     Track quality 100.0 %
     Test CRC 2B88DB3C
     Copy CRC 2B88DB3C
     Track not present in AccurateRip database
     Copy OK

Track 11

     Filename E:\My uploads\Antimatter - 2010 - Alternative Matter [Disc 2]\11 - Epitaph [Orchestral Mix].wav

     Peak level 96.7 %
     Track quality 99.9 %
     Test CRC 4B2CA2AD
     Copy CRC 4B2CA2AD
     Track not present in AccurateRip database
     Copy OK

None of the tracks are present in the AccurateRip database

No errors occurred

End of status report
Код:
Код:
-----------------------

DON'T MODIFY THIS FILE

-----------------------

PERFORMER: auCDtect Task Manager, ver. 1.5.1RC6 build 1.5.1.7
Copyright (c) 2008-2010 y-soft. All rights reserved
http:/y-soft.org

ANALYZER: auCDtect: CD records authenticity detector, version 0.8.2
Copyright (c) 2004 Oleg Berngardt. All rights reserved.
Copyright (c) 2004 Alexander Djourik. All rights reserved.

FILE: 11 - Epitaph [Orchestral Mix].flac
  Size: 20332931 Hash: FC6F5266207DD8E23D1D95311886D79B Accuracy: -m0
  Conclusion: CDDA 99%
  Signature: 7195FFB942948ED5F1A081FB5EBBC783AF6033E4
FILE: 10 - Lost Control [Acoustic, Enhanced].flac
  Size: 36329101 Hash: A375CF1FC27914C3F9387B14962A3406 Accuracy: -m0
  Conclusion: MPEG 80%
  Signature: ED5755C722D04B44A2255AE3009746A90C9A4463
FILE: 09 - Dream [4 Track Demo].flac
  Size: 40156916 Hash: 933CD848C0458307AFBFE4A4674FD3F6 Accuracy: -m0
  Conclusion: CDDA 100%
  Signature: 79975299BAF7A77047901C85337F52DEC717C97B
FILE: 08 - Over Your Shoulder [Acoustic].flac
  Size: 21241689 Hash: BF65C8FF8EBF3229FB88BA1A6A81155F Accuracy: -m0
  Conclusion: MPEG 95%
  Signature: 0F4277178915941766E75BCDB4233B205AB30D51
FILE: 07 - Expire [Atrabilis Sunrise Remix].flac
  Size: 30791382 Hash: 6E92F080CECB01016F8BE4B28CD53FB3 Accuracy: -m0
  Conclusion: CDDA 100%
  Signature: 6F6517956A9C5A629E98311162D272CE39111446
FILE: 06 - The Art Of A Soft Landing [4 Track Demo].flac
  Size: 25368544 Hash: C20610DF3710C7F5F46D677ACBBC5F6A Accuracy: -m0
  Conclusion: CDDA 100%
  Signature: 22F482B7BE28EE6E08F022050C4AB5B4F3F514CF
FILE: 05 - Holocaust [Reel To Reel Demo].flac
  Size: 27052966 Hash: 6F92A3D54EEC9F3A36CE4EE5BA67984E Accuracy: -m0
  Conclusion: CDDA 100%
  Signature: B03E5051DCF0A15DC59F6651E3C0A035B771071B
FILE: 04 - Flowers [Acoustic].flac
  Size: 19141742 Hash: 6639A9F027CFEF435D648C3A5B2C2A4B Accuracy: -m0
  Conclusion: MPEG 100%
  Signature: 5F283F8D3AA15C8C23914B1A4965A1D7E59F1C66
FILE: 03 - A Portrait Of The Young Man [Enhanced].flac
  Size: 36752489 Hash: BE850BF276B8DA5513549F3DF8B18937 Accuracy: -m0
  Conclusion: CDDA 99%
  Signature: 755E5189FD71B51A1FC5C883D133A945B64D3BF7
FILE: 02 - Everything You Know Is Wrong [Acoustic, Enhanced].flac
  Size: 16445362 Hash: 33727D1CA57B484FDE63591996056393 Accuracy: -m0
  Conclusion: CDDA 100%
  Signature: B41E31EC1A0F41AB2F5C5230CA7ED22A3865AE28
FILE: 01 - God Is Coming [Duncan Patterson Remix].flac
  Size: 37673580 Hash: 5DDA37507432CD760C7F399D0116B0C6 Accuracy: -m0
  Conclusion: CDDA 100%
  Signature: 8EAB2173BF2F113DF70FD94B53C2A3BA7A36BB75
Треклист:

01. Fighting For A Lost Cause [Demo]
02. Enjoy The Silence [Live]
03. Angelic [Mick Moss Remix]
04. Over Your Shoulder [Reel To Reel Demo]
05. Holocaust [FreeDoom Remix]
06. The Summer Effect [Instrumental Demo]
07. Angelic [Reel To Reel Demo]

Продолжительность: 00:29:53
Код:
Код:
Exact Audio Copy V0.99 prebeta 3 from 28. July 2007

EAC extraction logfile from 28. November 2010, 10:54

Antimatter / Alternative Matter [Disc 3] (Forbidden Matter)

Used drive  : Optiarc DVD RW AD-7203A   Adapter: 0  ID: 0

Read mode               : Secure
Utilize accurate stream : Yes
Defeat audio cache      : Yes
Make use of C2 pointers : No

Read offset correction                      : 48
Overread into Lead-In and Lead-Out          : No
Fill up missing offset samples with silence : Yes
Delete leading and trailing silent blocks   : No
Null samples used in CRC calculations       : Yes
Used interface                              : Native Win32 interface for Win NT & 2000
Gap handling                                : Not detected, thus appended to previous track

Used output format              : User Defined Encoder
Selected bitrate                : 128 kBit/s
Quality                         : High
Add ID3 tag                     : No
Command line compressor         : C:\Program Files (x86)\Exact Audio Copy\Flac\flac.exe
Additional command line options : -V -8 -T "artist=%a" -T "title=%t" -T "album=%g" -T "date=%y" -T "tracknumber=%n" -T "genre=%m" %s

TOC of the extracted CD

     Track |   Start  |  Length  | Start sector | End sector
    ---------------------------------------------------------
        1  |  0:00.00 |  4:22.33 |         0    |    19682
        2  |  4:22.33 |  3:39.09 |     19683    |    36116
        3  |  8:01.42 |  4:14.45 |     36117    |    55211
        4  | 12:16.12 |  4:30.08 |     55212    |    75469
        5  | 16:46.20 |  3:48.01 |     75470    |    92570
        6  | 20:34.21 |  4:56.56 |     92571    |   114826
        7  | 25:31.02 |  4:21.61 |    114827    |   134462

Track  1

     Filename E:\My uploads\Antimatter - 2010 - Alternative Matter [Disc 3] (Forbidden Matter)\01 - Fighting For A Lost Cause [Demo].wav

     Peak level 97.2 %
     Track quality 100.0 %
     Test CRC 420BE8AC
     Copy CRC 420BE8AC
     Track not present in AccurateRip database
     Copy OK

Track  2

     Filename E:\My uploads\Antimatter - 2010 - Alternative Matter [Disc 3] (Forbidden Matter)\02 - Enjoy The Silence [Live].wav

     Peak level 97.1 %
     Track quality 100.0 %
     Test CRC 2E8425F6
     Copy CRC 2E8425F6
     Track not present in AccurateRip database
     Copy OK

Track  3

     Filename E:\My uploads\Antimatter - 2010 - Alternative Matter [Disc 3] (Forbidden Matter)\03 - Angelic [Mick Moss Remix].wav

     Peak level 96.9 %
     Track quality 100.0 %
     Test CRC B8BABA9F
     Copy CRC B8BABA9F
     Track not present in AccurateRip database
     Copy OK

Track  4

     Filename E:\My uploads\Antimatter - 2010 - Alternative Matter [Disc 3] (Forbidden Matter)\04 - Over Your Shoulder [Reel To Reel Demo].wav

     Peak level 96.9 %
     Track quality 100.0 %
     Test CRC 325AA4D6
     Copy CRC 325AA4D6
     Track not present in AccurateRip database
     Copy OK

Track  5

     Filename E:\My uploads\Antimatter - 2010 - Alternative Matter [Disc 3] (Forbidden Matter)\05 - Holocaust [FreeDoom Remix].wav

     Peak level 96.9 %
     Track quality 100.0 %
     Test CRC 7FC74FCE
     Copy CRC 7FC74FCE
     Track not present in AccurateRip database
     Copy OK

Track  6

     Filename E:\My uploads\Antimatter - 2010 - Alternative Matter [Disc 3] (Forbidden Matter)\06 - The Summer Effect [Instrumental Demo].wav

     Peak level 97.6 %
     Track quality 100.0 %
     Test CRC 64855851
     Copy CRC 64855851
     Track not present in AccurateRip database
     Copy OK

Track  7

     Filename E:\My uploads\Antimatter - 2010 - Alternative Matter [Disc 3] (Forbidden Matter)\07 - Angelic [Reel To Reel Demo].wav

     Peak level 97.7 %
     Track quality 100.0 %
     Test CRC 63AA4555
     Copy CRC 63AA4555
     Track not present in AccurateRip database
     Copy OK

None of the tracks are present in the AccurateRip database

No errors occurred

End of status report
Код:
Код:
-----------------------

DON'T MODIFY THIS FILE

-----------------------

PERFORMER: auCDtect Task Manager, ver. 1.5.1RC6 build 1.5.1.7
Copyright (c) 2008-2010 y-soft. All rights reserved
http:/y-soft.org

ANALYZER: auCDtect: CD records authenticity detector, version 0.8.2
Copyright (c) 2004 Oleg Berngardt. All rights reserved.
Copyright (c) 2004 Alexander Djourik. All rights reserved.

FILE: 07 - Angelic [Reel To Reel Demo].flac
  Size: 22408003 Hash: 164F16D7258C33CC740D83D1606D638D Accuracy: -m0
  Conclusion: CDDA 54%
  Signature: C6963492F25E750A8E9232A8B6E1D88CDADA3170
FILE: 06 - The Summer Effect [Instrumental Demo].flac
  Size: 26877558 Hash: BECEA03D4B118E418B953FB501AF1E26 Accuracy: -m0
  Conclusion: CDDA 100%
  Signature: 435758C1C6E5E4DEC7E5438FE4816DEDBE779F27
FILE: 05 - Holocaust [FreeDoom Remix].flac
  Size: 19390949 Hash: 1175B11E91C80037807819D15364FD19 Accuracy: -m0
  Conclusion: CDDA 100%
  Signature: 8D5EC9CE6A7B36E0275668BD056621D3C33E6326
FILE: 04 - Over Your Shoulder [Reel To Reel Demo].flac
  Size: 26799066 Hash: B43EE329A1D4B755191735A31FBC6521 Accuracy: -m0
  Conclusion: MPEG 100%
  Signature: 309B2A83DE14272B4E2470EDCA15F60CB0BA1130
FILE: 03 - Angelic [Mick Moss Remix].flac
  Size: 28710400 Hash: 178AB1618274A677E0F947D033758BD8 Accuracy: -m0
  Conclusion: CDDA 99%
  Signature: A8B88CEAA55BDB055FC3C7F46CC946667BE4F3BC
FILE: 02 - Enjoy The Silence [Live].flac
  Size: 21799015 Hash: ADF0448689B88EB20E0D81A340C82B9B Accuracy: -m0
  Conclusion: CDDA 100%
  Signature: 3FC1A75D75DD0DF1B20A7D619B185DF5AAA0D2E8
FILE: 01 - Fighting For A Lost Cause [Demo].flac
  Size: 19102791 Hash: C27B49505A1E0486399D415DB5CF648B Accuracy: -m0
  Conclusion: MPEG 99%
  Signature: 5FBB97503A8583D72856B7CDCA1AF4DE550F9D07
Спасибо: drevil
Треклист:

01. Paranova
02. Monochrome
03. Fear Of A Unique Identity
04. Firewalking
05. Here Come The Men
06. Uniformed & Black
07. Wide Awake In The Concrete Asylum
08. The Parade
09. A Place In The Sun

Продолжительность: 00:49:12
Код:
Код:
Exact Audio Copy V1.0 beta 3 from 29. August 2011

EAC extraction logfile from 7. January 2013, 17:31

Antimatter / Fear Of A Unique Identity

Used drive  : PLEXTOR DVDR   PX-860A   Adapter: 4  ID: 0

Read mode               : Secure
Utilize accurate stream : Yes
Defeat audio cache      : Yes
Make use of C2 pointers : No

Read offset correction                      : 96
Overread into Lead-In and Lead-Out          : No
Fill up missing offset samples with silence : Yes
Delete leading and trailing silent blocks   : No
Null samples used in CRC calculations       : Yes
Used interface                              : Installed external ASPI interface

Used output format              : User Defined Encoder
Selected bitrate                : 1024 kBit/s
Quality                         : High
Add ID3 tag                     : No
Command line compressor         : C:\Program Files\Exact Audio Copy\FLAC.EXE
Additional command line options : -V -8 -T "Date=%year%" -T "Genre=%genre%" %source%

TOC of the extracted CD

     Track |   Start  |  Length  | Start sector | End sector
    ---------------------------------------------------------
        1  |  0:00.00 |  6:06.00 |         0    |    27449
        2  |  6:06.00 |  5:24.00 |     27450    |    51749
        3  | 11:30.00 |  5:28.00 |     51750    |    76349
        4  | 16:58.00 |  8:04.00 |     76350    |   112649
        5  | 25:02.00 |  5:06.00 |    112650    |   135599
        6  | 30:08.00 |  4:19.00 |    135600    |   155024
        7  | 34:27.00 |  6:47.01 |    155025    |   185550
        8  | 41:14.01 |  3:22.00 |    185551    |   200700
        9  | 44:36.01 |  4:36.00 |    200701    |   221400

Range status and errors

Selected range

     Filename I:\MUSIC\Antimatter - Fear Of A Unique Identity.wav

     Peak level 96.6 %
     Extraction speed 6.3 X
     Range quality 100.0 %
     Test CRC A14AC1B1
     Copy CRC A14AC1B1
     Copy OK

No errors occurred

AccurateRip summary

Track  1  accurately ripped (confidence 1)  [3E1588D2]  (AR v1)
Track  2  accurately ripped (confidence 1)  [1BABB343]  (AR v1)
Track  3  accurately ripped (confidence 1)  [022FC03A]  (AR v1)
Track  4  accurately ripped (confidence 1)  [1D22493E]  (AR v1)
Track  5  accurately ripped (confidence 1)  [4CC9C503]  (AR v1)
Track  6  accurately ripped (confidence 1)  [2B012ED5]  (AR v1)
Track  7  accurately ripped (confidence 1)  [478B2AE8]  (AR v1)
Track  8  accurately ripped (confidence 1)  [3B1FC0F2]  (AR v1)
Track  9  accurately ripped (confidence 1)  [46642724]  (AR v1)

All tracks accurately ripped

End of status report

==== Log checksum A3595DCE5294CA16D654564583DB4584C08CC4208453C77440552B2E5DDEA8C5 ====
Код:
Код:
-----------------------

DON'T MODIFY THIS FILE

-----------------------

PERFORMER: auCDtect Task Manager, ver. 1.5.1RC6 build 1.5.1.7
Copyright (c) 2008-2010 y-soft. All rights reserved
http:/y-soft.org

ANALYZER: auCDtect: CD records authenticity detector, version 0.8.2
Copyright (c) 2004 Oleg Berngardt. All rights reserved.
Copyright (c) 2004 Alexander Djourik. All rights reserved.

FILE: Antimatter - Fear Of A Unique Identity.flac
  Size: 314713853 Hash: C9FF838EA8FE5328692BA739EAC2800D Accuracy: -m0
  Conclusion: CDDA 100%
  Signature: FF96122C06E3C4B6086730254776A31FA5E033F4
Треклист:

01. The Parade (Remix)
02. Fear Of A Unique Identity (Acoustic Mix)
03. Here Come The Men (Violin Mix)
04. Firewalking (Remix)
05. A Place In The Sun (Demo)
06. Monochrome (Alternate Demo)

Продолжительность: 00:28:34
Код:
Код:
Exact Audio Copy V1.0 beta 3 from 29. August 2011

EAC extraction logfile from 7. January 2013, 18:03

Antimatter / Fear Of A Unique Identity (Bonus CD)

Used drive  : PLEXTOR DVDR   PX-860A   Adapter: 4  ID: 0

Read mode               : Secure
Utilize accurate stream : Yes
Defeat audio cache      : Yes
Make use of C2 pointers : No

Read offset correction                      : 96
Overread into Lead-In and Lead-Out          : No
Fill up missing offset samples with silence : Yes
Delete leading and trailing silent blocks   : No
Null samples used in CRC calculations       : Yes
Used interface                              : Installed external ASPI interface

Used output format              : User Defined Encoder
Selected bitrate                : 1024 kBit/s
Quality                         : High
Add ID3 tag                     : No
Command line compressor         : C:\Program Files\Exact Audio Copy\FLAC.EXE
Additional command line options : -V -8 -T "Date=%year%" -T "Genre=%genre%" %source%

TOC of the extracted CD

     Track |   Start  |  Length  | Start sector | End sector
    ---------------------------------------------------------
        1  |  0:00.00 |  4:25.31 |         0    |    19905
        2  |  4:25.31 |  4:36.55 |     19906    |    40660
        3  |  9:02.11 |  4:56.59 |     40661    |    62919
        4  | 13:58.70 |  5:23.54 |     62920    |    87198
        5  | 19:22.49 |  3:31.54 |     87199    |   103077
        6  | 22:54.28 |  5:39.73 |    103078    |   128575

Range status and errors

Selected range

     Filename I:\MUSIC\Antimatter - Fear Of A Unique Identity (Bonus CD).wav

     Peak level 98.7 %
     Extraction speed 6.3 X
     Range quality 100.0 %
     Test CRC 1AB22818
     Copy CRC 1AB22818
     Copy OK

No errors occurred

AccurateRip summary

Track  1  not present in database
Track  2  not present in database
Track  3  not present in database
Track  4  not present in database
Track  5  not present in database
Track  6  not present in database

None of the tracks are present in the AccurateRip database

End of status report

==== Log checksum 4CFA0EE4F43B2B4484FBA94FE479BD3B36D67467C659B6A1719F6F3C737A49C3 ====
Код:
Код:
-----------------------

DON'T MODIFY THIS FILE

-----------------------

PERFORMER: auCDtect Task Manager, ver. 1.5.1RC6 build 1.5.1.7
Copyright (c) 2008-2010 y-soft. All rights reserved
http:/y-soft.org

ANALYZER: auCDtect: CD records authenticity detector, version 0.8.2
Copyright (c) 2004 Oleg Berngardt. All rights reserved.
Copyright (c) 2004 Alexander Djourik. All rights reserved.

FILE: Antimatter - Fear Of A Unique Identity (Bonus CD).flac
  Size: 166810201 Hash: 4785169A52AF28643912781FE80319AA Accuracy: -m0
  Conclusion: CDDA 100%
  Signature: A8265AE0687C00F0A578FC0F020FB2A8C4FEEA7F
Правила, инструкции, FAQ!!!
Торрент  Добавлен [16 мар 2014, 00:19] Скачать торрент Магнет ссылка
Скачать торрент
[ Размер 21.45 КБ / Просмотров 30 ]

Статус  
 
Размер  2.3 ГБ
Приватный: Нет (DHT включён)
.torrent скачан  0
 


     Отправить личное сообщение
   
Страница 1 из 1
Показать сообщения за:  Поле сортировки  
Начать новую тему Ответить на тему


Сейчас этот форум просматривают: нет зарегистрированных пользователей и гости: 0


Вы не можете начинать темы
Вы не можете отвечать на сообщения
Вы не можете редактировать свои сообщения
Вы не можете удалять свои сообщения
Вы не можете добавлять вложения

Перейти:  
cron