Начать новую тему Ответить на тему
Статистика раздачи
Размер: 541.58 МБ | Добавлен: 14 мар 2020, 10:57 | Скачали: 0
Сидеров: 0  [0 байт/сек]    Личеров: 0  [0 байт/сек]
Пред. тема | След. тема 

Автор
Сообщение

СообщениеДобавлено: 14 мар 2020, 10:57 

Ответить с цитатой 


Anthony Jerome


Ma plus belle chanson
10 succes en or reorchestres en Swing




• Формат записи | Источник записи: [TR24][OF]
• Наличие водяных знаков: Нет
• Год издания релиза: 2020
• Жанр: Pop
• Лейбл: Promoforce - Ja Prod
• Продолжительность: 00:41:34
• Источник: internet
• WEB релиз: ссылка
• Контейнер: FLAC (*.flac)
• Тип рипа: tracks
• Разрядность: 24/48
• Формат: WAV (flac.ape.wv)
• Количество каналов: 2.0
• Наличие сканов: front
Tracklist:
01 - Pour le plaisir (00:03:42)
02 - Chez Laurette (00:03:56)
03 - Le chanteur malheureux (00:03:58)
04 - Le ciel le soleil et la mer (00:03:46)
05 - Si (00:03:33)
06 - Aline (00:03:06)
07 - La philosophie (00:03:45)
08 - Le geant de papier (00:03:30)
09 - Un ete de porcelaine (00:03:54)
10 - Ma plus belle chanson (00:04:28)
11 - Je t'oublie (00:03:52)



Код:
foobar2000 1.4.2 / Dynamic Range Meter 1.1.1
log date: 2020-03-01 11:25:39
--------------------------------------------------------------------------------
Analyzed: Anthony Jerome / Ma plus belle chanson (10 succГЁs en or rГ©orchestrГ©s en Swing)
--------------------------------------------------------------------------------
DR         Peak         RMS     Duration Track
--------------------------------------------------------------------------------
DR8        0.00 dB    -9.21 dB      3:43 01-Pour le plaisir
DR8        0.00 dB    -9.67 dB      3:57 02-Chez Laurette
DR6        0.00 dB    -7.68 dB      3:58 03-Le chanteur malheureux
DR8        0.00 dB    -9.07 dB      3:47 04-Le ciel le soleil et la mer
DR6        0.00 dB    -7.86 dB      3:34 05-Si
DR8        0.00 dB    -9.51 dB      3:06 06-Aline
DR6       -0.13 dB    -7.31 dB      3:45 07-La philosophie
DR7        0.00 dB    -8.24 dB      3:30 08-Le gГ©ant de papier
DR8        0.00 dB    -8.82 dB      3:55 09-Un Г©tГ© de porcelaine
DR6        0.00 dB    -7.55 dB      4:28 10-Ma plus belle chanson
DR7       -0.13 dB    -9.65 dB      3:52 11-Je t'oublie
--------------------------------------------------------------------------------
Number of tracks:  11
Official DR value: DR7
Samplerate:        48000 Hz
Channels:          2
Bits per sample:   24
Bitrate:           1745 kbps
Codec:             FLAC
================================================================================

Правила, инструкции, FAQ!!!
Торрент  Добавлен [14 мар 2020, 10:57] Скачать торрент Магнет ссылка
Скачать торрент
[ Размер 11.69 КБ / Просмотров 6 ]

Статус
Проверен 
 
Размер  541.58 МБ
Приватный: Нет (DHT включён)
.torrent скачан  0
 


     Отправить личное сообщение
   
Страница 1 из 1
Показать сообщения за:  Поле сортировки  
Начать новую тему Ответить на тему


Сейчас этот форум просматривают: нет зарегистрированных пользователей и гости: 0


Вы не можете начинать темы
Вы не можете отвечать на сообщения
Вы не можете редактировать свои сообщения
Вы не можете удалять свои сообщения
Вы не можете добавлять вложения

Перейти:  
cron