Начать новую тему Ответить на тему
Статистика раздачи
Размер: 258.97 МБ | Добавлен: 16 мар 2014, 00:54 | Скачали: 1
Сидеров: 1  [0 байт/сек]    Личеров: 8  [0 байт/сек]
Пред. тема | След. тема 

Автор
Сообщение

СообщениеДобавлено: 16 мар 2014, 00:54 

Ответить с цитатой 

Anneke Van Giersbergen - Drive - 2013

Год: 2013
Жанр: Alternative rock
Страна: Netherlands
Издатель: Inside Out Music [0506652]
Продолжительность: 00:37:34

Кодек: FLAC
Тип рипа: image+.cue
Битрейт: Lossless
Треклист:

01. We Live On
02. Treat Me Like A Lady
03. She
04. Drive
05. My Mother Said
06. Forgive Me
07. You Will Never Change
08. Mental Jungle
09. Shooting For The Stars
10. The Best Is Yet To Come


MP3
http://www.annekevangiersbergen.com/
В среде меломанов и любителей красивых женских голосов Аннеке ван Гиерсберген в представлениях особо не нуждается. Бывшая вокалистка экспериментальной голландской группы The Gathering (которых за всё время их существования "шатало" от метала к психоделическому прогрессиву и далее к трип-хопу и альтернативе), ныне - самостоятельная и при этом весьма продуктивная творческая единица.
Она сотрудничала и выступала вместе со многими видными и уважаемыми в своём кругу музыкантами и коллективами: Ayreon, The Devin Townsend Project, Anathema & отдельно Danny Cavanagh, John Wetton, Pain of Salvation, Napalm Death, Moonspell, Within Temptation и др.
Туомас Холопайнен (Nightwish) назвал её в пятёрке своих любимых женских голосов, она засветилась в компании практически всех наиболее популярных и обсуждаемых в среде female-fronted metal вокалисток, с некоторыми из которых её связывают дружеские отношения (Симон Симонс, Флор Янсен, Кристина Скаббиа и др.). А уж разброс музыкальных стилей, в которых она успела поработать, и вовсе впечатляет!
Код:
Код:
Exact Audio Copy V1.0 beta 3 from 29. August 2011

EAC extraction logfile from 11. October 2013, 21:08

Anneke Van Giersbergen / Drive (0506652)

Used drive  : MATSHITABD-CMB UJ242AS   Adapter: 0  ID: 1

Read mode               : Secure
Utilize accurate stream : Yes
Defeat audio cache      : Yes
Make use of C2 pointers : No

Read offset correction                      : 103
Overread into Lead-In and Lead-Out          : No
Fill up missing offset samples with silence : Yes
Delete leading and trailing silent blocks   : No
Null samples used in CRC calculations       : Yes
Used interface                              : Installed external ASPI interface

Used output format              : User Defined Encoder
Selected bitrate                : 1024 kBit/s
Quality                         : High
Add ID3 tag                     : Yes
Command line compressor         : C:\Program Files (x86)\Exact Audio Copy\Flac\flac.exe
Additional command line options : -V -8 -T "Date=%year%" -T "Genre=%genre%" %source%

TOC of the extracted CD

     Track |   Start  |  Length  | Start sector | End sector
    ---------------------------------------------------------
        1  |  0:00.00 |  3:41.04 |         0    |    16578
        2  |  3:41.04 |  4:00.48 |     16579    |    34626
        3  |  7:41.52 |  3:08.00 |     34627    |    48726
        4  | 10:49.52 |  3:43.36 |     48727    |    65487
        5  | 14:33.13 |  3:21.62 |     65488    |    80624
        6  | 17:55.00 |  3:11.29 |     80625    |    94978
        7  | 21:06.29 |  4:03.43 |     94979    |   113246
        8  | 25:09.72 |  3:44.36 |    113247    |   130082
        9  | 28:54.33 |  4:33.71 |    130083    |   150628
       10  | 33:28.29 |  4:04.46 |    150629    |   168974

Range status and errors

Selected range

     Filename C:\EACrip\Anneke Van Giersbergen - Drive (0506652).wav

     Peak level 98.8 %
     Extraction speed 3.8 X
     Range quality 100.0 %
     Test CRC 6C5F8418
     Copy CRC 6C5F8418
     Copy OK

No errors occurred

AccurateRip summary

Track  1  cannot be verified as accurate (confidence 1)  [30812350], AccurateRip returned [A2B99519]  (AR v2)
Track  2  cannot be verified as accurate (confidence 1)  [520FEEB8], AccurateRip returned [03CE0F17]  (AR v2)
Track  3  cannot be verified as accurate (confidence 1)  [D940B795], AccurateRip returned [93173B48]  (AR v2)
Track  4  cannot be verified as accurate (confidence 1)  [556B32C8], AccurateRip returned [70E14EDE]  (AR v2)
Track  5  cannot be verified as accurate (confidence 1)  [83952B02], AccurateRip returned [E67B71E1]  (AR v2)
Track  6  cannot be verified as accurate (confidence 1)  [872291A9], AccurateRip returned [393CB001]  (AR v2)
Track  7  cannot be verified as accurate (confidence 1)  [B56E3D4A], AccurateRip returned [2022CDB5]  (AR v2)
Track  8  cannot be verified as accurate (confidence 1)  [9746CD5D], AccurateRip returned [DC0DCC55]  (AR v2)
Track  9  cannot be verified as accurate (confidence 1)  [BACB0847], AccurateRip returned [BF6E2054]  (AR v2)
Track 10  cannot be verified as accurate (confidence 1)  [057F14DC], AccurateRip returned [F5554A8E]  (AR v2)

No tracks could be verified as accurate
You may have a different pressing from the one(s) in the database

End of status report

==== Log checksum CC921E033875BD9413BD6CB387C241914D93F5196415244B108B48100740C2B5 ====

Код:
Код:
-----------------------

DON'T MODIFY THIS FILE

-----------------------

PERFORMER: auCDtect Task Manager, ver. 1.6.0 RC1 build 1.6.0.1
Copyright (c) 2008-2010 y-soft. All rights reserved
http:/y-soft.org

ANALYZER: auCDtect: CD records authenticity detector, version 0.8.2
Copyright (c) 2004 Oleg Berngardt. All rights reserved.
Copyright (c) 2004 Alexander Djourik. All rights reserved.

FILE: Anneke Van Giersbergen - Drive (0506652).flac
  Size: 262887778 Hash: E061D2793C821352567A104FE3959199 Accuracy: -m0
  Conclusion: CDDA 100%
  Signature: 52AA689B97183E3DBACD98F1A73ACECAD839526F
Правила, инструкции, FAQ!!!
Торрент  Добавлен [16 мар 2014, 00:54] Скачать торрент Магнет ссылка
Скачать торрент
[ Размер 11.56 КБ / Просмотров 30 ]

Статус  
 
Размер  258.97 МБ
Приватный: Нет (DHT включён)
.torrent скачан  1
 


     Отправить личное сообщение
   
Страница 1 из 1
Показать сообщения за:  Поле сортировки  
Начать новую тему Ответить на тему


Сейчас этот форум просматривают: нет зарегистрированных пользователей и гости: 0


Вы не можете начинать темы
Вы не можете отвечать на сообщения
Вы не можете редактировать свои сообщения
Вы не можете удалять свои сообщения
Вы не можете добавлять вложения

Перейти:  
cron
cron