Начать новую тему Ответить на тему
Статистика раздачи
Размер: 269.23 МБ | Добавлен: 16 мар 2014, 00:40 | Скачали: 1
Сидеров: 1  [0 байт/сек]    Личеров: 0  [0 байт/сек]
Пред. тема | След. тема 

Автор
Сообщение

СообщениеДобавлено: 16 мар 2014, 00:40 

Ответить с цитатой 

Anneke van Giersbergen & Danny Cavanagh - In Parallel (2009)

Год: 2009
Жанр: Alternative, Acoustic
Издатель (лейбл): Angelic Recordings
Номер по каталогу: ANGEL 2
Страна: Norway
Аудиокодек: FLAC (*.flac)
Тип рипа: tracks+.cue
Битрейт аудио: lossless
Продолжительность: 01:00:31
Источник (релизер): what.cd
(Bezvezenator)
Наличие сканов в содержимом раздачи: нет
Треклист:
01. Teardrop (5:01)
02. You Learn About It (3:54)
03. Temporary Peace (4:26)
04. Yalin (3:17)
05. Songbird (3:24)
06. Big Love (3:08)
07. The Blower's Daughter (4:36)
08. One Last Goodbye (5:48)
09. Are You There? (4:29)
10. Day After Yesterday (3:56)
11. A Natural Disaster (4:38)
12. Lost And Found (3:55)
13. Flying (6:12)
14. Jolene (3:47)
Код:
Код:
Exact Audio Copy V0.99 prebeta 4 from 23. January 2008

EAC extraction logfile from 2. October 2009, 19:21

Anneke Van Giersbergen & Danny Cavanagh / In Parallel

Used drive  : PLEXTOR CD-ROM PX-40TS   Adapter: 2  ID: 3

Read mode               : Secure
Utilize accurate stream : Yes
Defeat audio cache      : Yes
Make use of C2 pointers : No

Read offset correction                      : 676
Overread into Lead-In and Lead-Out          : No
Fill up missing offset samples with silence : Yes
Delete leading and trailing silent blocks   : No
Null samples used in CRC calculations       : Yes
Used interface                              : Native Win32 interface for Win NT & 2000
Gap handling                                : Appended to previous track

Used output format              : User Defined Encoder
Selected bitrate                : 1024 kBit/s
Quality                         : High
Add ID3 tag                     : No
Command line compressor         : C:\Programmi2\Audio\FLAC\flac.exe
Additional command line options :  -8 -V -T "ARTIST=%a" -T "TITLE=%t" -T "ALBUM=%g" -T "DATE=%y" -T "TRACKNUMBER=%n" -T "GENRE=%m" -T "COMMENT=Ripped by VinceVega (EAC FLAC -8)" %s

TOC of the extracted CD

     Track |   Start  |  Length  | Start sector | End sector
    ---------------------------------------------------------
        1  |  0:00.00 |  5:00.68 |         0    |    22567
        2  |  5:00.68 |  3:54.05 |     22568    |    40122
        3  |  8:54.73 |  4:26.17 |     40123    |    60089
        4  | 13:21.15 |  3:16.59 |     60090    |    74848
        5  | 16:37.74 |  3:23.72 |     74849    |    90145
        6  | 20:01.71 |  3:08.20 |     90146    |   104265
        7  | 23:10.16 |  4:35.38 |    104266    |   124928
        8  | 27:45.54 |  5:48.02 |    124929    |   151030
        9  | 33:33.56 |  4:29.14 |    151031    |   171219
       10  | 38:02.70 |  3:56.21 |    171220    |   188940
       11  | 41:59.16 |  4:37.65 |    188941    |   209780
       12  | 46:37.06 |  3:54.52 |    209781    |   227382
       13  | 50:31.58 |  6:12.22 |    227383    |   255304
       14  | 56:44.05 |  3:46.70 |    255305    |   272324

Track  1

     Filename E:\Musica\Archive\Anneke Van Giersbergen & Danny Cavanagh - In Parallel (2009) [FLAC]\01 - Teardrop.wav

     Pre-gap length  0:00:02.00

     Peak level 100.0 %
     Track quality 100.0 %
     Test CRC 70DA8883
     Copy CRC 70DA8883
     Track not present in AccurateRip database
     Copy OK

Track  2

     Filename E:\Musica\Archive\Anneke Van Giersbergen & Danny Cavanagh - In Parallel (2009) [FLAC]\02 - You Learn About It.wav

     Peak level 65.0 %
     Track quality 100.0 %
     Test CRC 545A908F
     Copy CRC 545A908F
     Track not present in AccurateRip database
     Copy OK

Track  3

     Filename E:\Musica\Archive\Anneke Van Giersbergen & Danny Cavanagh - In Parallel (2009) [FLAC]\03 - Temporary Peace.wav

     Peak level 76.9 %
     Track quality 100.0 %
     Test CRC 10F1BE06
     Copy CRC 10F1BE06
     Track not present in AccurateRip database
     Copy OK

Track  4

     Filename E:\Musica\Archive\Anneke Van Giersbergen & Danny Cavanagh - In Parallel (2009) [FLAC]\04 - Yalin.wav

     Peak level 58.0 %
     Track quality 100.0 %
     Test CRC 5F4D7897
     Copy CRC 5F4D7897
     Track not present in AccurateRip database
     Copy OK

Track  5

     Filename E:\Musica\Archive\Anneke Van Giersbergen & Danny Cavanagh - In Parallel (2009) [FLAC]\05 - Songbird.wav

     Peak level 63.0 %
     Track quality 100.0 %
     Test CRC AADE7172
     Copy CRC AADE7172
     Track not present in AccurateRip database
     Copy OK

Track  6

     Filename E:\Musica\Archive\Anneke Van Giersbergen & Danny Cavanagh - In Parallel (2009) [FLAC]\06 - Big Love.wav

     Peak level 86.3 %
     Track quality 99.9 %
     Test CRC 1E8F5F09
     Copy CRC 1E8F5F09
     Track not present in AccurateRip database
     Copy OK

Track  7

     Filename E:\Musica\Archive\Anneke Van Giersbergen & Danny Cavanagh - In Parallel (2009) [FLAC]\07 - The Blower's Daughter.wav

     Peak level 78.5 %
     Track quality 100.0 %
     Test CRC C8BF9E13
     Copy CRC C8BF9E13
     Track not present in AccurateRip database
     Copy OK

Track  8

     Filename E:\Musica\Archive\Anneke Van Giersbergen & Danny Cavanagh - In Parallel (2009) [FLAC]\08 - One Last Goodbye.wav

     Peak level 77.9 %
     Track quality 99.9 %
     Test CRC 5E5C792E
     Copy CRC 5E5C792E
     Track not present in AccurateRip database
     Copy OK

Track  9

     Filename E:\Musica\Archive\Anneke Van Giersbergen & Danny Cavanagh - In Parallel (2009) [FLAC]\09 - Are You There .wav

     Peak level 65.0 %
     Track quality 100.0 %
     Test CRC 61F1D1E7
     Copy CRC 61F1D1E7
     Track not present in AccurateRip database
     Copy OK

Track 10

     Filename E:\Musica\Archive\Anneke Van Giersbergen & Danny Cavanagh - In Parallel (2009) [FLAC]\10 - Day After Yesterday.wav

     Peak level 77.2 %
     Track quality 100.0 %
     Test CRC 34814440
     Copy CRC 34814440
     Track not present in AccurateRip database
     Copy OK

Track 11

     Filename E:\Musica\Archive\Anneke Van Giersbergen & Danny Cavanagh - In Parallel (2009) [FLAC]\11 - A Natural Disaster.wav

     Peak level 90.6 %
     Track quality 100.0 %
     Test CRC 87270CE0
     Copy CRC 87270CE0
     Track not present in AccurateRip database
     Copy OK

Track 12

     Filename E:\Musica\Archive\Anneke Van Giersbergen & Danny Cavanagh - In Parallel (2009) [FLAC]\12 - Lost And Found.wav

     Peak level 75.7 %
     Track quality 100.0 %
     Test CRC 39FF23AF
     Copy CRC 39FF23AF
     Track not present in AccurateRip database
     Copy OK

Track 13

     Filename E:\Musica\Archive\Anneke Van Giersbergen & Danny Cavanagh - In Parallel (2009) [FLAC]\13 - Flying.wav

     Peak level 78.0 %
     Track quality 100.0 %
     Test CRC 5DC0B6B0
     Copy CRC 5DC0B6B0
     Track not present in AccurateRip database
     Copy OK

Track 14

     Filename E:\Musica\Archive\Anneke Van Giersbergen & Danny Cavanagh - In Parallel (2009) [FLAC]\14 - Jolene.wav

     Peak level 79.1 %
     Track quality 100.0 %
     Test CRC 650EAAD2
     Copy CRC 650EAAD2
     Track not present in AccurateRip database
     Copy OK

None of the tracks are present in the AccurateRip database

No errors occurred

End of status report
Код:
Код:
REM GENRE Acoustic
REM DATE 2009
REM DISCID B70E2F0E
REM COMMENT "ExactAudioCopy v0.99pb4"
PERFORMER "Anneke Van Giersbergen & Danny Cavanagh"
TITLE "In Parallel"
FILE "01 - Teardrop.wav" WAVE
  TRACK 01 AUDIO
    TITLE "Teardrop"
    PERFORMER "Anneke Van Giersbergen & Danny Cavanagh"
    INDEX 01 00:00:00
FILE "02 - You Learn About It.wav" WAVE
  TRACK 02 AUDIO
    TITLE "You Learn About It"
    PERFORMER "Anneke Van Giersbergen & Danny Cavanagh"
    INDEX 01 00:00:00
FILE "03 - Temporary Peace.wav" WAVE
  TRACK 03 AUDIO
    TITLE "Temporary Peace"
    PERFORMER "Anneke Van Giersbergen & Danny Cavanagh"
    INDEX 01 00:00:00
FILE "04 - Yalin.wav" WAVE
  TRACK 04 AUDIO
    TITLE "Yalin"
    PERFORMER "Anneke Van Giersbergen & Danny Cavanagh"
    INDEX 01 00:00:00
FILE "05 - Songbird.wav" WAVE
  TRACK 05 AUDIO
    TITLE "Songbird"
    PERFORMER "Anneke Van Giersbergen & Danny Cavanagh"
    INDEX 01 00:00:00
FILE "06 - Big Love.wav" WAVE
  TRACK 06 AUDIO
    TITLE "Big Love"
    PERFORMER "Anneke Van Giersbergen & Danny Cavanagh"
    INDEX 01 00:00:00
FILE "07 - The Blower's Daughter.wav" WAVE
  TRACK 07 AUDIO
    TITLE "The Blower's Daughter"
    PERFORMER "Anneke Van Giersbergen & Danny Cavanagh"
    INDEX 01 00:00:00
FILE "08 - One Last Goodbye.wav" WAVE
  TRACK 08 AUDIO
    TITLE "One Last Goodbye"
    PERFORMER "Anneke Van Giersbergen & Danny Cavanagh"
    INDEX 01 00:00:00
FILE "09 - Are You There.wav" WAVE
  TRACK 09 AUDIO
    TITLE "Are You There?"
    PERFORMER "Anneke Van Giersbergen & Danny Cavanagh"
    INDEX 01 00:00:00
FILE "10 - Day After Yesterday.wav" WAVE
  TRACK 10 AUDIO
    TITLE "Day After Yesterday"
    PERFORMER "Anneke Van Giersbergen & Danny Cavanagh"
    INDEX 01 00:00:00
FILE "11 - A Natural Disaster.wav" WAVE
  TRACK 11 AUDIO
    TITLE "A Natural Disaster"
    PERFORMER "Anneke Van Giersbergen & Danny Cavanagh"
    INDEX 01 00:00:00
FILE "12 - Lost And Found.wav" WAVE
  TRACK 12 AUDIO
    TITLE "Lost And Found"
    PERFORMER "Anneke Van Giersbergen & Danny Cavanagh"
    INDEX 01 00:00:00
FILE "13 - Flying.wav" WAVE
  TRACK 13 AUDIO
    TITLE "Flying"
    PERFORMER "Anneke Van Giersbergen & Danny Cavanagh"
    INDEX 01 00:00:00
FILE "14 - Jolene.wav" WAVE
  TRACK 14 AUDIO
    TITLE "Jolene"
    PERFORMER "Anneke Van Giersbergen & Danny Cavanagh"
    INDEX 01 00:00:00
Код:
Код:
-----------------------

DON'T MODIFY THIS FILE

-----------------------

PERFORMER: auCDtect Task Manager, ver. 1.6.0 RC1 build 1.6.0.1
Copyright (c) 2008-2010 y-soft. All rights reserved
http:/y-soft.org

ANALYZER: auCDtect: CD records authenticity detector, version 0.8.2
Copyright (c) 2004 Oleg Berngardt. All rights reserved.
Copyright (c) 2004 Alexander Djourik. All rights reserved.

FILE: 14 - Jolene.flac
  Size: 18824691 Hash: DC79422EFD584C91D1DEAB70F2343058 Accuracy: -m0
  Conclusion: CDDA 100%
  Signature: EAF52BB5667F16C7BFDD04BFB9927CD325CE6DBD
FILE: 13 - Flying.flac
  Size: 30247323 Hash: CE200A12FC8435BFE3CC30DE2D97014F Accuracy: -m0
  Conclusion: CDDA 100%
  Signature: BDCB1C0FF97641C176B3019CDAE3D3EFEFB0EED1
FILE: 12 - Lost And Found.flac
  Size: 16932089 Hash: 2DCF00898B7791AA5845D11197250F40 Accuracy: -m0
  Conclusion: CDDA 100%
  Signature: B3ED6F9BAFA602712028F9ABE615ED9D2177DE77
FILE: 11 - A Natural Disaster.flac
  Size: 21240129 Hash: 4A503F5DBCCA165D084CA6362F682889 Accuracy: -m0
  Conclusion: CDDA 100%
  Signature: B11D3F35DE6AAB7293B9D0F9FA4270DC9EDDA710
FILE: 10 - Day After Yesterday.flac
  Size: 16101602 Hash: 273B75E0D532BE952BDAA2BFF340C3C0 Accuracy: -m0
  Conclusion: CDDA 100%
  Signature: 2E9A1F67B7925148230D7D38573760B0A0C1F03A
FILE: 09 - Are You There.flac
  Size: 19853556 Hash: 787C8972E4A6F1ED9CAEAD99222EB4CF Accuracy: -m0
  Conclusion: CDDA 99%
  Signature: 5D2C388ADF99F204CF094CDCED9018DDC47CA67A
FILE: 08 - One Last Goodbye.flac
  Size: 26495501 Hash: CE75D172CBFC5083FE370C067F811E97 Accuracy: -m0
  Conclusion: CDDA 100%
  Signature: 4FFEA9DF6E38C815BC1E8C2CB139FDCA257FFF5A
FILE: 07 - The Blower's Daughter.flac
  Size: 19975900 Hash: DD03CF213E194A711265757F5D608E48 Accuracy: -m0
  Conclusion: CDDA 99%
  Signature: BAD4CAB75B20609DFA5F5DD8392A2EB3EA569914
FILE: 06 - Big Love.flac
  Size: 15606719 Hash: DB1E8C7DB003CEA1C9EAF5F3CC605A2E Accuracy: -m0
  Conclusion: CDDA 100%
  Signature: 45FA31B88536540348E1E237E75BFFBC56428987
FILE: 05 - Songbird.flac
  Size: 15374371 Hash: 6292BA215E3B4E779BA1B4046282FEF3 Accuracy: -m0
  Conclusion: CDDA 100%
  Signature: A1DDDA6E0EC548A92E5B4CB7C6C5E03CE27C8E05
FILE: 04 - Yalin.flac
  Size: 14400369 Hash: 9EEC57417DA4ADBCFFA51F7924330035 Accuracy: -m0
  Conclusion: CDDA 100%
  Signature: B116DE9FE8D2D17843E938A8957E7650BEE355F3
FILE: 03 - Temporary Peace.flac
  Size: 19933831 Hash: 26A68CC9339C1667B607A04C43EEC0E9 Accuracy: -m0
  Conclusion: CDDA 100%
  Signature: 681EE002ABCC479425E50A578B0B8AC89E9DA2C7
FILE: 02 - You Learn About It.flac
  Size: 18476790 Hash: B5E8F8C5309D1F743F1B2BCDD97211A7 Accuracy: -m0
  Conclusion: CDDA 100%
  Signature: 838F744F9B41E7E5C6A9A7720653FDEA3EF06ED3
FILE: 01 - Teardrop.flac
  Size: 22325258 Hash: FDDAB3EC787E9A2204F3FA811B019401 Accuracy: -m0
  Conclusion: CDDA 99%
  Signature: 40E015E27468F8FA784FA6D85AE51D343496C0C6
Правила, инструкции, FAQ!!!
Торрент  Добавлен [16 мар 2014, 00:40] Скачать торрент Магнет ссылка
Скачать торрент
[ Размер 23.71 КБ / Просмотров 48 ]

Статус  
 
Размер  269.23 МБ
Приватный: Нет (DHT включён)
.torrent скачан  1
 


     Отправить личное сообщение
   
Страница 1 из 1
Показать сообщения за:  Поле сортировки  
Начать новую тему Ответить на тему


Сейчас этот форум просматривают: нет зарегистрированных пользователей и гости: 0


Вы не можете начинать темы
Вы не можете отвечать на сообщения
Вы не можете редактировать свои сообщения
Вы не можете удалять свои сообщения
Вы не можете добавлять вложения

Перейти:  
cron
cron