Начать новую тему Ответить на тему
Статистика раздачи
Размер: 260.94 МБ | Добавлен: 16 мар 2014, 00:03 | Скачали: 2
Сидеров: 1  [0 байт/сек]    Личеров: 4  [0 байт/сек]
Пред. тема | След. тема 

Автор
Сообщение

СообщениеДобавлено: 16 мар 2014, 00:03 

Ответить с цитатой 

Andrew Leigh - Magician (1970) Reissue, Remastered 2011

Жанр: Rock/Folk Rock/Psychedelic Rock
Год: 1970
Страна: UK
Released: 2011/UK
Label: Sunbeam Records
Catalog#: SBRCD5080
Аудио кодек: FLAC
Тип рипа: image+.cue
Битрейт аудио: Lossless
Продолжительность: 00:45:36
Источник-релизер: havefun6699
Scans: в раздаче
Треклист:
01. Magician (3:23)
02. Get Myself Together (4:03)
03. Goin' Out To The West (4:37)
04. Solitaire (3:57)
05. Windy Baker Street (4:56)
06. Tack Me Back (4:50)
07. Leaving Song (2:59)
08. Fresh Brown Eggs (2:30)
09. Up The USA (9:19)
Bonus track
10. The Passing (5:01)
Код:
Код:
Exact Audio Copy V0.99 prebeta 4 from 23. January 2008

Отчёт EAC об извлечении, выполненном 27. июля 2011, 21:34

Andrew Leigh / Magician

Дисковод: Optiarc DVD RW AD-7200A   Adapter: 0  ID: 0

Режим чтения                 : Достоверность
Использование точного потока : Да
Отключение кэша аудио        : Да
Использование указателей C2  : Нет

Коррекция смещения при чтении                     : 48
Способность читать области Lead-in и Lead-out     : Нет
Заполнение пропущенных сэмплов тишиной            : Да
Удаление блоков с тишиной в начале и конце        : Нет
При вычислениях CRC использовались нулевые сэмплы : Да
Интерфейс                                         : Встроенный Win32-интерфейс для Win NT/2000

Выходной формат          : Пользовательский кодировщик
Выбранный битрейт        : 768 kBit/s
Качество                 : Высокий
Добавление ID3-тэга      : Нет
Утилита сжатия           : C:\Program Files\Exact Audio Copy\FLAC\FLAC.EXE
Дополнительные параметры : -6 -V -T "ARTIST=%a" -T "TITLE=%t" -T "ALBUM=%g" -T "DATE=%y" -T "TRACKNUMBER=%n" -T "GENRE=%m" -T "COMMENT=%e" %s -o %d

TOC извлечённого CD

     Трек |   Старт  | Длительность | Начальный сектор | Конечный сектор
    ---------------------------------------------------------------------
       1  |  0:00.00 |    3:22.60   |           0      |      15209
       2  |  3:22.60 |    4:03.23   |       15210      |      33457
       3  |  7:26.08 |    4:36.43   |       33458      |      54200
       4  | 12:02.51 |    3:57.33   |       54201      |      72008
       5  | 16:00.09 |    4:55.66   |       72009      |      94199
       6  | 20:56.00 |    4:50.34   |       94200      |     115983
       7  | 25:46.34 |    2:58.68   |      115984      |     129401
       8  | 28:45.27 |    2:29.74   |      129402      |     140650
       9  | 31:15.26 |    9:19.34   |      140651      |     182609
      10  | 40:34.60 |    5:01.30   |      182610      |     205214

Характеристики диапазона извлечения и сообщения об ошибках

Выбранный диапазон

     Имя файла D:\ \images\Andrew Leigh - Magician\Andrew Leigh - Magician.wav

     Пиковый уровень 90.1 %
     Качество диапазона 99.9 %
     CRC копии 063ACAEB
     Копирование... OK

Ошибок не произошло

AccurateRip: сводка

Трек  1  нет в базе данных
Трек  2  нет в базе данных
Трек  3  нет в базе данных
Трек  4  нет в базе данных
Трек  5  нет в базе данных
Трек  6  нет в базе данных
Трек  7  нет в базе данных
Трек  8  нет в базе данных
Трек  9  нет в базе данных
Трек 10  нет в базе данных

Ни одного трека нет в базе AccurateRip

Конец отчёта
Код:
Код:
-----------------------

DON'T MODIFY THIS FILE

-----------------------

PERFORMER: auCDtect Task Manager, ver. 1.6.0 RC1 build 1.6.0.1
Copyright (c) 2008-2010 y-soft. All rights reserved
http:/y-soft.org

ANALYZER: auCDtect: CD records authenticity detector, version 0.8.2
Copyright (c) 2004 Oleg Berngardt. All rights reserved.
Copyright (c) 2004 Alexander Djourik. All rights reserved.

FILE: Andrew Leigh - Magician.flac
  Size: 270472625 Hash: F9BA7312605510B0EF8708051EA23D06 Accuracy: -m0
  Conclusion: CDDA 100%
  Signature: 9C1278CB8B166B1AC75A298A97DFF71C60E4DD67
Код:
Код:
REM GENRE Psychedelic
REM DATE 1970
REM DISCID 8F0AB00A
REM COMMENT "ExactAudioCopy v0.99pb4"
PERFORMER "Andrew Leigh"
TITLE "Magician"
FILE "Andrew Leigh - Magician.flac" WAVE
  TRACK 01 AUDIO
    TITLE "Magician"
    PERFORMER "Andrew Leigh"
    FLAGS DCP
    INDEX 01 00:00:00
  TRACK 02 AUDIO
    TITLE "Get Myself Together"
    PERFORMER "Andrew Leigh"
    FLAGS DCP
    INDEX 00 03:19:60
    INDEX 01 03:22:60
  TRACK 03 AUDIO
    TITLE "Goin' Out To The West"
    PERFORMER "Andrew Leigh"
    FLAGS DCP
    INDEX 00 07:25:08
    INDEX 01 07:26:08
  TRACK 04 AUDIO
    TITLE "Solitaire"
    PERFORMER "Andrew Leigh"
    FLAGS DCP
    INDEX 01 12:02:51
  TRACK 05 AUDIO
    TITLE "Windy Baker Street"
    PERFORMER "Andrew Leigh"
    FLAGS DCP
    INDEX 00 15:58:09
    INDEX 01 16:00:09
  TRACK 06 AUDIO
    TITLE "Tack Me Back"
    PERFORMER "Andrew Leigh"
    FLAGS DCP
    INDEX 00 20:53:00
    INDEX 01 20:56:00
  TRACK 07 AUDIO
    TITLE "Leaving Song"
    PERFORMER "Andrew Leigh"
    FLAGS DCP
    INDEX 00 25:44:34
    INDEX 01 25:46:34
  TRACK 08 AUDIO
    TITLE "Fresh Brown Eggs"
    PERFORMER "Andrew Leigh"
    FLAGS DCP
    INDEX 00 28:43:27
    INDEX 01 28:45:27
  TRACK 09 AUDIO
    TITLE "Up The USA"
    PERFORMER "Andrew Leigh"
    FLAGS DCP
    INDEX 00 31:12:26
    INDEX 01 31:15:26
  TRACK 10 AUDIO
    TITLE "The Passing"
    PERFORMER "Andrew Leigh"
    FLAGS DCP
    INDEX 00 40:31:60
    INDEX 01 40:34:60
#777
“Magician” – первый и единственный сольный альбом Эндрю (Энди) Ли, записанный им в промежуток между участием в качестве бас-гитариста в таких группах как “Spooky Tooth” и “Matthews Southern Comfort”. Компанию ему составили весьма достойные музыканты: Gary Farr (“The T-Bone”), Reg King (“The Action”, “Mighty Baby”), Kevin Westlake и Brian Godding (“Blossom Toes”), Mike Kellie и Gary Wright (“Spooky Tooth”), Tony Priestland (“Titus Groan”), Bryn Hayward (“The Fleur de Lys”), Gordon Jackson (“Deep Feeling”).
Довольно яркий образчик добротного британского фолк-рока. Несмотря на сказочную обложку, присутствие акустических гитар и флейты, это достаточно тяжелый фолк с разнообразным саундом, изрядной долей психоделии и легкими кислотными “вливаниями”. (rock-archeologia)

Personnel:
- Andrew (Andy) Leigh - vocals, bass (01-03, 05, 06, 08), recorder (01), maracas (01, 05), acoustic guitar (01, 05, 06), piano (02, 05), mellotron (02, 05), electric guitar (02, 04, 05, 09), timbales (04), tabla (05), claves (05), banjo (07), producer
- Kevin Westlake - drums (01-03, 05, 06), vocals (01), electric guitar (03, 06), acoustic guitar (03, 08), bass (04, 07, 09)
- Gordon Jackson - electric sitar (01)
- Bryn Hayward - electric & acoustic guitar (01)
- Reggie King - piano & vocals (01)
- Mike Kellie - tambourine (03, 06, 08), drums (04, 07, 09), maracas (06)
- Gary Farr - harmonica (03, 08, 09), acoustic guitar (03), 12-string guitar (08)
- Brian Godding - electric guitar (04)
- Tony Priestland - tenor saxophone & flute & oboe (05)
- Gary Wright - electric piano (06), piano (07)
- Paul Whitehead - art direction
- Terry Yason – producer
Правила, инструкции, FAQ!!!
Торрент  Добавлен [16 мар 2014, 00:03] Скачать торрент Магнет ссылка
Скачать торрент
[ Размер 11.34 КБ / Просмотров 64 ]

Статус  
 
Размер  260.94 МБ
Приватный: Нет (DHT включён)
.torrent скачан  2
 


     Отправить личное сообщение
   
Страница 1 из 1
Показать сообщения за:  Поле сортировки  
Начать новую тему Ответить на тему


Сейчас этот форум просматривают: нет зарегистрированных пользователей и гости: 0


Вы не можете начинать темы
Вы не можете отвечать на сообщения
Вы не можете редактировать свои сообщения
Вы не можете удалять свои сообщения
Вы не можете добавлять вложения

Перейти:  
cron