Начать новую тему Ответить на тему
Статистика раздачи
Размер: 328.01 МБ | Добавлен: 16 мар 2014, 00:24 | Скачали: 0
Сидеров: 0  [0 байт/сек]    Личеров: 0  [0 байт/сек]
Пред. тема | След. тема 

Автор
Сообщение

СообщениеДобавлено: 16 мар 2014, 00:24 

Ответить с цитатой 

Anders Osborne - Peace (2013)

Год: 2013
Жанр: Rock, Americana, Blues-Rock
Продолжительность: 00:50:52
Дата издания диска : October 8, 2013
Страна производитель диска: USA
Издатель (лейбл): Alligator Records
Номер по каталогу: B00EYPNBQM
Источник (релизер): Ready.zp
Наличие сканов в содержимом раздачи: Да
Кодек: FLAC
Тип рипа: image+.cue (конвертировано с помощью CUETools)
Битрейт: Lossless
Треклист:

01. Peace 06:46
02. 47 04:43
03. Let It Go 04:30
04. Windows 04:59
05. Five Bullets 03:10
06. Brush Up Against Me 02:37
07. Sentimental Times 04:51
08. Dream Girl 04:22
09. Sarah Anne 05:41
10. I'm Ready 04:06
11. My Son 04:44
Код:
Код:
Exact Audio Copy V1.0 beta 3 from 29. August 2011

EAC extraction logfile from 11. November 2013, 23:45

Anders Osborne / Peace

Used drive : ATAPI iHAS120 6 Adapter: 0 ID: 0

Read mode : Secure
Utilize accurate stream : Yes
Defeat audio cache : Yes
Make use of C2 pointers : No

Read offset correction : 6
Overread into Lead-In and Lead-Out : No
Fill up missing offset samples with silence : Yes
Delete leading and trailing silent blocks : No
Null samples used in CRC calculations : Yes
Used interface : Native Win32 interface for Win NT & 2000
Gap handling : Appended to previous track

Used output format : User Defined Encoder
Selected bitrate : 1024 kBit/s
Quality : High
Add ID3 tag : No
Command line compressor : C:\Program Files (x86)\Exact Audio Copy\Flac\flac.exe
Additional command line options : -8 -V -T "ARTIST=%artist%" -T "TITLE=%title%" -T "ALBUM=%albumtitle%" -T "DATE=%year%" -T "TRACKNUMBER=%tracknr%" -T "GENRE=%genre%" -T "PERFORMER=%albuminterpret%" -T "COMPOSER=%composer%" %haslyrics%--tag-from-file=LYRICS="%lyricsfile%"%haslyrics% -T "ALBUMARTIST=%albumartist%" -T "DISCNUMBER=%cdnumber%" -T "TOTALDISCS=%totalcds%" -T "TOTALTRACKS=%numtracks%" -T "COMMENT=%comment%" %source% -o %dest%

TOC of the extracted CD

Track | Start | Length | Start sector | End sector
---------------------------------------------------------
1 | 0:00.00 | 6:47.03 | 0 | 30527
2 | 6:47.03 | 4:44.66 | 30528 | 51893
3 | 11:31.69 | 4:35.14 | 51894 | 72532
4 | 16:07.08 | 4:59.67 | 72533 | 95024
5 | 21:07.00 | 3:10.41 | 95025 | 109315
6 | 24:17.41 | 2:36.73 | 109316 | 121088
7 | 26:54.39 | 4:53.38 | 121089 | 143101
8 | 31:48.02 | 4:23.45 | 143102 | 162871
9 | 36:11.47 | 5:43.19 | 162872 | 188615
10 | 41:54.66 | 4:08.71 | 188616 | 207286
11 | 46:03.62 | 4:47.13 | 207287 | 228824

Track 1

Filename C:\Users\justsaymint\Desktop\Anders Osborne - Peace (2013) [FLAC]\01 Peace.wav

Pre-gap length 0:00:02.00

Peak level 100.0 %
Extraction speed 2.6 X
Track quality 99.9 %
Test CRC A01D3A4E
Copy CRC A01D3A4E
Accurately ripped (confidence 2) [19F506E0] (AR v2)
Copy OK

Track 2

Filename C:\Users\justsaymint\Desktop\Anders Osborne - Peace (2013) [FLAC]\02 47.wav

Peak level 100.0 %
Extraction speed 2.8 X
Track quality 99.9 %
Test CRC FCE3BEB1
Copy CRC FCE3BEB1
Accurately ripped (confidence 2) [4A04020B] (AR v2)
Copy OK

Track 3

Filename C:\Users\justsaymint\Desktop\Anders Osborne - Peace (2013) [FLAC]\03 Let it Go.wav

Peak level 94.3 %
Extraction speed 3.0 X
Track quality 99.9 %
Test CRC 22EE3A31
Copy CRC 22EE3A31
Accurately ripped (confidence 2) [D7D9B40F] (AR v2)
Copy OK

Track 4

Filename C:\Users\justsaymint\Desktop\Anders Osborne - Peace (2013) [FLAC]\04 Windows.wav

Peak level 94.9 %
Extraction speed 3.7 X
Track quality 100.0 %
Test CRC 6B7738B5
Copy CRC 6B7738B5
Accurately ripped (confidence 2) [2C437C47] (AR v2)
Copy OK

Track 5

Filename C:\Users\justsaymint\Desktop\Anders Osborne - Peace (2013) [FLAC]\05 Five Bullets.wav

Peak level 100.0 %
Extraction speed 3.1 X
Track quality 99.9 %
Test CRC DAC91946
Copy CRC DAC91946
Accurately ripped (confidence 2) [89D33B14] (AR v2)
Copy OK

Track 6

Filename C:\Users\justsaymint\Desktop\Anders Osborne - Peace (2013) [FLAC]\06 Brush Up Against Me.wav

Peak level 100.0 %
Extraction speed 3.6 X
Track quality 100.0 %
Test CRC 6A2BDF32
Copy CRC 6A2BDF32
Accurately ripped (confidence 2) [EAF15814] (AR v2)
Copy OK

Track 7

Filename C:\Users\justsaymint\Desktop\Anders Osborne - Peace (2013) [FLAC]\07 Sentimental Times.wav

Peak level 82.7 %
Extraction speed 4.2 X
Track quality 100.0 %
Test CRC D0DDD1E9
Copy CRC D0DDD1E9
Accurately ripped (confidence 2) [FD329A7D] (AR v2)
Copy OK

Track 8

Filename C:\Users\justsaymint\Desktop\Anders Osborne - Peace (2013) [FLAC]\08 Dream Girl.wav

Peak level 90.2 %
Extraction speed 3.9 X
Track quality 99.9 %
Test CRC 5BDF00CD
Copy CRC 5BDF00CD
Accurately ripped (confidence 2) [7D3ED74B] (AR v2)
Copy OK

Track 9

Filename C:\Users\justsaymint\Desktop\Anders Osborne - Peace (2013) [FLAC]\09 Sarah Anne.wav

Peak level 90.2 %
Extraction speed 4.3 X
Track quality 99.9 %
Test CRC D946E787
Copy CRC D946E787
Accurately ripped (confidence 2) [54A334FF] (AR v2)
Copy OK

Track 10

Filename C:\Users\justsaymint\Desktop\Anders Osborne - Peace (2013) [FLAC]\10 I'm Ready.wav

Peak level 92.0 %
Extraction speed 4.7 X
Track quality 100.0 %
Test CRC 9DBDA142
Copy CRC 9DBDA142
Accurately ripped (confidence 2) [4384C728] (AR v2)
Copy OK

Track 11

Filename C:\Users\justsaymint\Desktop\Anders Osborne - Peace (2013) [FLAC]\11 My Son.wav

Peak level 96.6 %
Extraction speed 4.5 X
Track quality 99.9 %
Test CRC 658F2163
Copy CRC 658F2163
Accurately ripped (confidence 2) [645DCA46] (AR v2)
Copy OK

All tracks accurately ripped

No errors occurred

End of status report

---- CUETools DB Plugin V2.1.3

[CTDB TOCID: yd_BsfhmuWPx3JWy8nroBhuPQHY-] found, Submit result: yd_BsfhmuWPx3JWy8nroBhuPQHY- has been confirmed
[f2b751f5] (1/1) Accurately ripped

==== Log checksum D63F6E10E8866309C9D8D658A19D42445AB541BB78B1B0C6E10AA8380934FD99 ====
Код:
Код:
-----------------------

DON'T MODIFY THIS FILE

-----------------------

PERFORMER: auCDtect Task Manager, ver. 1.6.0 RC1 build 1.6.0.1
Copyright (c) 2008-2010 y-soft. All rights reserved
http:/y-soft.org

ANALYZER: auCDtect: CD records authenticity detector, version 0.8.2
Copyright (c) 2004 Oleg Berngardt. All rights reserved.
Copyright (c) 2004 Alexander Djourik. All rights reserved.

FILE: Anders Osborne - Peace.flac
  Size: 337175035 Hash: BF5ABDFD83395DBFDFF7CCE333FF54AB Accuracy: -m0
  Conclusion: CDDA 100%
  Signature: 7F3F3E4D7D4E28238C8A95CF6883F118B22D1455
Код:
Код:
[CUETools log; Date: 20.12.2013 14:14:04; Version: 2.1.4]
[AccurateRip ID: 0015880f-00b73bcc-a60beb0b] found.
Track   [  CRC   |   V2   ] Status
 01     [4a846c55|19f506e0] (0+4/4) Accurately ripped
 02     [0b22f486|4a04020b] (0+4/4) Accurately ripped
 03     [c68561ca|d7d9b40f] (0+4/4) Accurately ripped
 04     [a4026cfc|2c437c47] (0+4/4) Accurately ripped
 05     [62e9d0fb|89d33b14] (0+4/4) Accurately ripped
 06     [8b188168|eaf15814] (0+4/4) Accurately ripped
 07     [49f0292b|fd329a7d] (0+4/4) Accurately ripped
 08     [38975e41|7d3ed74b] (0+4/4) Accurately ripped
 09     [1d26a3cc|54a334ff] (0+4/4) Accurately ripped
 10     [e9374a36|4384c728] (0+4/4) Accurately ripped
 11     [b6a9adbe|645dca46] (0+4/4) Accurately ripped

Track Peak [ CRC32  ] [W/O NULL] [  LOG   ]
 --  100,0 [F65A7FD9] [AD65E04A]
 01  100,0 [A01D3A4E] [1AD54018]   CRC32
 02  100,0 [FCE3BEB1] [FAD49AE9]   CRC32
 03   94,3 [22EE3A31] [19F992F1]   CRC32
 04   94,9 [6B7738B5] [7782E096]   CRC32
 05  100,0 [DAC91946] [8ED90A3B]   CRC32
 06  100,0 [6A2BDF32] [E0A5611A]   CRC32
 07   82,7 [D0DDD1E9] [41ABAF49]   CRC32
 08   90,2 [5BDF00CD] [1855BBBE]   CRC32
 09   90,2 [D946E787] [6170ED50]   CRC32
 10   92,0 [9DBDA142] [C1F76CE6]   CRC32
 11   96,6 [658F2163] [7919BAF0]   CRC32
Правила, инструкции, FAQ!!!
Торрент  Добавлен [16 мар 2014, 00:24] Скачать торрент Магнет ссылка
Скачать торрент
[ Размер 14.1 КБ / Просмотров 19 ]

Статус  
 
Размер  328.01 МБ
Приватный: Нет (DHT включён)
.torrent скачан  0
 


     Отправить личное сообщение
   
Страница 1 из 1
Показать сообщения за:  Поле сортировки  
Начать новую тему Ответить на тему


Сейчас этот форум просматривают: нет зарегистрированных пользователей и гости: 0


Вы не можете начинать темы
Вы не можете отвечать на сообщения
Вы не можете редактировать свои сообщения
Вы не можете удалять свои сообщения
Вы не можете добавлять вложения

Перейти:  
cron