Начать новую тему Ответить на тему
Статистика раздачи
Размер: 1.27 ГБ | Добавлен: 16 мар 2014, 00:19 | Скачали: 1
Сидеров: 6  [0 байт/сек]    Личеров: 2  [0 байт/сек]
Пред. тема | След. тема 

Автор
Сообщение

СообщениеДобавлено: 16 мар 2014, 00:19 

Ответить с цитатой 

Anathema - Universal - 2013


Год:
2013 | Жанр: Progressive / Atmospheric Rock | Страна: UK | Издатель: Kscope [KSCOPE517]
Кодек: FLAC | Битрейт: Lossless | Тип рипа: image+.cue | Продолжительность: 02:16:18
Треклист:


01. Untouchable, Part 1
02. Untouchable, Part 2
03. Thin Air
04. Dreaming Light
05. Lightning Song
06. The Storm Before The Calm
07. Everything
08. A Simple Mistake
09. The Beginning And The End
10. Universal
11. Closer

Продолжительность - 01:13:05

Код:
Код:
Exact Audio Copy V0.99 prebeta 5 from 4. May 2009

Archivo Log de extracciones desde 2. Octubre 2013, 19:16

ANATHEMA / Universal - Fan's Edition - CD1

Usar unidad  : HL-DT-STDVDRAM GH22NS70   Adapter: 0  ID: 0

Modo de Lectura           : Seguro
Utilizar Corriente Exacta : Sн
Descartar Audio cachй     : Sн
Utilizar los punteros C2  : No

Correcciуn de Desplazamiento de Lectura         : 667
Sobreleer tanto en Lead-In como en Lead-Out     : No
Rellenar las muestras faltantes con silencios   : Sн
Eliminar silencios inicial y final              : No
Se han usado muestras nulas en los cбlculos CRC : Sн
Interfaz usada                                  : Interfaz propio de Win32 para Windowns NT y 2000

Formato de Salida utilizado               : Compresor definido por el usuario
Bitrate seleccionado                      : 32 kBit/s
Calidad                                   : Alta
Aсadir Etiqueta ID3                       : No
Compresor de linea de comandos            : C:\Program Files (x86)\Exact Audio Copy\Flac\flac.exe
Opciones adicionales en lнnea de comandos : -6 -V %s

TOC del CD extraido

     Pista |  Inicio  | Duraciуn | Sector inicial | Sector final
    -------------------------------------------------------------
        1  |  0:00.00 |  6:56.32 |          0     |     31231
        2  |  6:56.32 |  6:05.74 |      31232     |     58680
        3  | 13:02.31 |  6:03.63 |      58681     |     85968
        4  | 19:06.19 |  6:05.67 |      85969     |    113410
        5  | 25:12.11 |  5:44.47 |     113411     |    139257
        6  | 30:56.58 |  9:27.23 |     139258     |    181805
        7  | 40:24.06 |  5:53.20 |     181806     |    208300
        8  | 46:17.26 |  8:33.34 |     208301     |    246809
        9  | 54:50.60 |  4:41.26 |     246810     |    267910
       10  | 59:32.11 |  7:30.74 |     267911     |    301734
       11  | 67:03.10 |  6:01.28 |     301735     |    328837

Gama de estados y errores

Seleccionar gama

     Nombre de Archivo E:\Mъsica\EAC\Anathema\Universal\ANATHEMA - Universal - Fan's Edition - CD1.wav

     Nivel Pico 94.3 %
     Gama de Calidad 100.0 %
     Test CRC 002DE5AD
     Copiar CRC 002DE5AD
     Copia OK

Sin Errores

Resumen AccurateRip

Pista  1  no se puede verificar como preciso (confianza 3)  [D002DBB4], AccurateRip devuelto [D99320E3]
Pista  2  no se puede verificar como preciso (confianza 3)  [D64805B8], AccurateRip devuelto [2596E0B2]
Pista  3  no se puede verificar como preciso (confianza 3)  [6B17199A], AccurateRip devuelto [E77A5444]
Pista  4  no se puede verificar como preciso (confianza 3)  [C2CDDF51], AccurateRip devuelto [D69ED45D]
Pista  5  no se puede verificar como preciso (confianza 3)  [15A712A3], AccurateRip devuelto [BCA51E6D]
Pista  6  no se puede verificar como preciso (confianza 3)  [5ABC4E52], AccurateRip devuelto [0FBAA254]
Pista  7  no se puede verificar como preciso (confianza 3)  [FDCC1A2A], AccurateRip devuelto [B36809F2]
Pista  8  no se puede verificar como preciso (confianza 3)  [17031ACD], AccurateRip devuelto [25A8764F]
Pista  9  no se puede verificar como preciso (confianza 3)  [CAEDF762], AccurateRip devuelto [F409461A]
Pista 10  no se puede verificar como preciso (confianza 3)  [9360DA6C], AccurateRip devuelto [37DA6EAD]
Pista 11  no se puede verificar como preciso (confianza 3)  [EBC943DC], AccurateRip devuelto [578F558A]

No se verificarб ninguna pista como precisa
Puede que tengas una ediciуn diferente a la(s) de la base de datos

Final del Informe
Код:
Код:
-----------------------

DON'T MODIFY THIS FILE

-----------------------

PERFORMER: auCDtect Task Manager, ver. 1.6.0 RC1 build 1.6.0.1
Copyright (c) 2008-2010 y-soft. All rights reserved
http:/y-soft.org

ANALYZER: auCDtect: CD records authenticity detector, version 0.8.2
Copyright (c) 2004 Oleg Berngardt. All rights reserved.
Copyright (c) 2004 Alexander Djourik. All rights reserved.

FILE: Anathema - Universal - Fan's Edition - CD1.flac
  Size: 510495203 Hash: 603BBF34F554038B8E5C495815E19DE2 Accuracy: -m0
  Conclusion: CDDA 100%
  Signature: E6EEFA7FB4B3C8413B0D56051EA2C6ED6D2B84A9

#777
Трeклист:


01. A Natural Disaster
02. Deep
03. One Last Goodbye
04. Flying
05. Fragile Dreams
06. Panic
07. Emotional Winter / Wings Of God
08. Internal Landscapes
09. Fragile Dreams

Продолжительность - 01:03:14
Код:
Код:
Exact Audio Copy V0.99 prebeta 5 from 4. May 2009

Archivo Log de extracciones desde 2. Octubre 2013, 17:29

ANATHEMA / Universal - Fan's Edition - CD2

Usar unidad  : HL-DT-STDVDRAM GH22NS70   Adapter: 0  ID: 0

Modo de Lectura           : Seguro
Utilizar Corriente Exacta : Sн
Descartar Audio cachй     : Sн
Utilizar los punteros C2  : No

Correcciуn de Desplazamiento de Lectura         : 667
Sobreleer tanto en Lead-In como en Lead-Out     : No
Rellenar las muestras faltantes con silencios   : Sн
Eliminar silencios inicial y final              : No
Se han usado muestras nulas en los cбlculos CRC : Sн
Interfaz usada                                  : Interfaz propio de Win32 para Windowns NT y 2000

Formato de Salida utilizado               : Compresor definido por el usuario
Bitrate seleccionado                      : 32 kBit/s
Calidad                                   : Alta
Aсadir Etiqueta ID3                       : No
Compresor de linea de comandos            : C:\Program Files (x86)\Exact Audio Copy\Flac\flac.exe
Opciones adicionales en lнnea de comandos : -6 -V %s

TOC del CD extraido

     Pista |  Inicio  | Duraciуn | Sector inicial | Sector final
    -------------------------------------------------------------
        1  |  0:00.00 |  6:53.19 |          0     |     30993
        2  |  6:53.19 |  5:07.33 |      30994     |     54051
        3  | 12:00.52 |  6:18.24 |      54052     |     82425
        4  | 18:19.01 | 10:02.58 |      82426     |    127633
        5  | 28:21.59 |  6:23.70 |     127634     |    156428
        6  | 34:45.54 |  3:36.15 |     156429     |    172643
        7  | 38:21.69 |  9:43.71 |     172644     |    216439
        8  | 48:05.65 |  8:18.74 |     216440     |    253863
        9  | 56:24.64 |  6:48.59 |     253864     |    284522

Gama de estados y errores

Seleccionar gama

     Nombre de Archivo E:\Mъsica\EAC\Anathema\Universal\ANATHEMA - Universal - Fan's Edition - CD2.wav

     Nivel Pico 95.3 %
     Gama de Calidad 100.0 %
     Test CRC A98D0D52
     Copiar CRC A98D0D52
     Copia OK

Sin Errores

Resumen AccurateRip

Pista  1  no se puede verificar como preciso (confianza 1)  [6248660C], AccurateRip devuelto [38A641ED]
Pista  2  no se puede verificar como preciso (confianza 1)  [691F59E2], AccurateRip devuelto [26FCFDB3]
Pista  3  no se puede verificar como preciso (confianza 1)  [3CE6D65A], AccurateRip devuelto [4615921D]
Pista  4  no se puede verificar como preciso (confianza 1)  [0CE6A8E5], AccurateRip devuelto [B0EFD695]
Pista  5  no se puede verificar como preciso (confianza 1)  [1E789595], AccurateRip devuelto [0F245CDD]
Pista  6  no se puede verificar como preciso (confianza 1)  [CECEA734], AccurateRip devuelto [A2400FC4]
Pista  7  no se puede verificar como preciso (confianza 1)  [CF3309D5], AccurateRip devuelto [A3A9EA5D]
Pista  8  no se puede verificar como preciso (confianza 1)  [0DB1B743], AccurateRip devuelto [0932907A]
Pista  9  no se puede verificar como preciso (confianza 1)  [72AEA6A1], AccurateRip devuelto [F54C41B2]

No se verificarб ninguna pista como precisa
Puede que tengas una ediciуn diferente a la(s) de la base de datos

Final del Informe
Код:
Код:
-----------------------

DON'T MODIFY THIS FILE

-----------------------

PERFORMER: auCDtect Task Manager, ver. 1.6.0 RC1 build 1.6.0.1
Copyright (c) 2008-2010 y-soft. All rights reserved
http:/y-soft.org

ANALYZER: auCDtect: CD records authenticity detector, version 0.8.2
Copyright (c) 2004 Oleg Berngardt. All rights reserved.
Copyright (c) 2004 Alexander Djourik. All rights reserved.

FILE: Anathema - Universal - Fan's Edition - CD2.flac
  Size: 430287549 Hash: 8EFAFE516BF86D7024E6516E355312DA Accuracy: -m0
  Conclusion: CDDA 100%
  Signature: 72D03CDD6390072C2F2DA7F039DCE1CB3C4A160E
Правила, инструкции, FAQ!!!
Торрент  Добавлен [16 мар 2014, 00:19] Скачать торрент Магнет ссылка
Скачать торрент
[ Размер 15.36 КБ / Просмотров 90 ]

Статус  
 
Размер  1.27 ГБ
Приватный: Нет (DHT включён)
.torrent скачан  1
 


     Отправить личное сообщение
   
Страница 1 из 1
Показать сообщения за:  Поле сортировки  
Начать новую тему Ответить на тему


Сейчас этот форум просматривают: нет зарегистрированных пользователей и гости: 0


Вы не можете начинать темы
Вы не можете отвечать на сообщения
Вы не можете редактировать свои сообщения
Вы не можете удалять свои сообщения
Вы не можете добавлять вложения

Перейти:  
cron
cron