Начать новую тему Ответить на тему
Статистика раздачи
Размер: 828.61 МБ | Добавлен: 24 авг 2016, 12:05 | Скачали: 0
Сидеров: 2  [0 байт/сек]    Личеров: 0  [0 байт/сек]
Пред. тема | След. тема 

Автор
Сообщение

СообщениеДобавлено: 24 авг 2016, 12:05 

Ответить с цитатой 

The The - Dusk

Жанр: Alternative Rock
Носитель: LP
Год выпуска: 1993
Лейбл: Epic ‎– 472468 1
Страна-производитель: US
Аудио кодек: FLAC
Тип рипа: tracks
Формат записи: 24\96
Формат раздачи: 24\96
Продолжительность: 40:54.328 (235 615 464 samples)
Треклист:
1 – True Happiness This Way Lies
2 – Love Is Stronger Than Death
3 – Dogs Of Lust
4 – This Is The Night
5 – Slow Emotion Replay
6 – Helpline Operator
7 – Sodium Light Baby
8 – Lung Shadows
9 – Bluer Than Midnight
10 – Lonely Planet

Источник оцифровки: третьим лицом
Код класса состояния винила: NM
Устройство воспроизведения: Kuzma Stabi S
Головка звукоснимателя: Ortofon Cadenza Bronze MC
Предварительный усилитель: A.N.T. Audio “Kora 3T” S.E. MC
АЦП: Tascam US-144
Программа-оцифровщик: WaveLab 5.01
Обработка: ClickRepair (manual)
: foobar2000 1.0.3 / Dynamic Range Meter 1.1.1
log date: 2014-04-19 13:46:47

--------------------------------------------------------------------------------
Analyzed: The The / Dusk (Masterdisk LP)
--------------------------------------------------------------------------------

DR Peak RMS Duration Track
--------------------------------------------------------------------------------
DR14 -9.23 dB -26.11 dB 2:56 01-True Happiness This Way Lies
DR13 -0.62 dB -17.66 dB 4:38 02-Love Is Stronger Than Death
DR13 -0.81 dB -16.14 dB 3:09 03-Dogs Of Lust
DR13 -0.75 dB -17.56 dB 3:50 04-This Is The Night
DR13 -1.04 dB -16.17 dB 3:58 05-Slow Emotion Replay
DR15 -1.39 dB -18.38 dB 4:49 06-Helpline Operator
DR14 -0.05 dB -16.91 dB 3:45 07-Sodium Light Baby
DR12 -9.89 dB -25.69 dB 4:34 08-Lung Shadows
DR15 -2.64 dB -23.39 dB 3:43 09-Bluer Than Midnight
DR12 -1.99 dB -16.75 dB 5:30 10-Lonely Planet
--------------------------------------------------------------------------------

Number of tracks: 10
Official DR value: DR13

Samplerate: 96000 Hz
Channels: 2
Bits per sample: 24
Bitrate: 3085 kbps
Codec: FLAC
================================================================================
Правила, инструкции, FAQ!!!
Торрент  Добавлен [24 авг 2016, 12:05] Скачать торрент Магнет ссылка
Скачать торрент
[ Размер 17.44 КБ / Просмотров 15 ]

Статус
Проверен 
 
Размер  828.61 МБ
Приватный: Нет (DHT включён)
.torrent скачан  0
 


     Отправить личное сообщение
   
Страница 1 из 1
Показать сообщения за:  Поле сортировки  
Начать новую тему Ответить на тему


Сейчас этот форум просматривают: нет зарегистрированных пользователей и гости: 0


Вы не можете начинать темы
Вы не можете отвечать на сообщения
Вы не можете редактировать свои сообщения
Вы не можете удалять свои сообщения
Вы не можете добавлять вложения

Перейти:  
cron
cron