Начать новую тему Ответить на тему
Статистика раздачи
Размер: 96.66 МБ | Добавлен: 24 авг 2016, 11:58 | Скачали: 0
Сидеров: 4  [0 байт/сек]    Личеров: 1  [0 байт/сек]
Пред. тема | След. тема 

Автор
Сообщение

СообщениеДобавлено: 24 авг 2016, 11:58 

Ответить с цитатой 

Melvins - Demos

Жанр: Alternative Metal
Год выпуска диска: 199?
Производитель диска: US
Аудио кодек: FLAC
Тип рипа: tracks+.cue
Битрейт аудио: lossless
Продолжительность: 14:43
Источник: Nirvana & AIC Spirit Hub
Трэклист:
01 - Forgotten Principles (01:07)
02 - I Don't Need Your Money (01:30)
03 - Bang Your Head (03:02)
04 - I Never Know (01:24)
05 - Snake Appeal (01:52)
06 - Never The Same (01:03)
07 - Give Up (01:26)
08 - Set Me Straight (02:28)
09 - Again (00:51)

Buzz Osbourne - guitar
Matt Lukin - bass
Mike Dillard - drums
Generation = ANA(2) -> WAV -> CDR(1) -> SHN -> FLAC

Transfer = Nakamichi DR-8 -> Hosa RCA cable -> LynxONE analog-in -> Sound Forge 7.0 -> CD Architect 5.0 -> Plextor Plexwriter -> EAC -> MKW

This is much better quality then the Mangled Demos bootleg. I did some slight noise reduction and raised the level.

Transferred by Mike Ziegler.
REM GENRE Alternative Metal
REM DATE 1983
PERFORMER "Melvins"
TITLE "Demos"
FILE "01 - Forgotten Principles.flac" WAVE
TRACK 01 AUDIO
TITLE "Forgotten Principles"
PERFORMER "Melvins"
INDEX 01 00:00:00
FILE "02 - I Don't Need Your Money.flac" WAVE
TRACK 02 AUDIO
TITLE "I Don't Need Your Money"
PERFORMER "Melvins"
INDEX 01 00:00:00
FILE "03 - Bang Your Head.flac" WAVE
TRACK 03 AUDIO
TITLE "Bang Your Head"
PERFORMER "Melvins"
INDEX 01 00:00:00
FILE "04 - I Never Know.flac" WAVE
TRACK 04 AUDIO
TITLE "I Never Know"
PERFORMER "Melvins"
INDEX 01 00:00:00
FILE "05 - Snake Appeal.flac" WAVE
TRACK 05 AUDIO
TITLE "Snake Appeal"
PERFORMER "Melvins"
INDEX 01 00:00:00
FILE "06 - Never The Same.flac" WAVE
TRACK 06 AUDIO
TITLE "Never The Same"
PERFORMER "Melvins"
INDEX 01 00:00:00
FILE "07 - Give Up.flac" WAVE
TRACK 07 AUDIO
TITLE "Give Up"
PERFORMER "Melvins"
INDEX 01 00:00:00
FILE "08 - Set Me Straight.flac" WAVE
TRACK 08 AUDIO
TITLE "Set Me Straight"
PERFORMER "Melvins"
INDEX 01 00:00:00
FILE "09 - Again.flac" WAVE
TRACK 09 AUDIO
TITLE "Again"
PERFORMER "Melvins"
INDEX 01 00:00:00
AUDIOCHECKER v2.0 beta (build 457) - by Dester - opdester@freemail.hu
~~~~~~~~~~~~~~~~~~~~~~~~~~~~~~~~~~

Started at: воскресенье, 30. 05. 2010. - 19:29.17
9 files found

1 -===- D:\Melvins - Demos\01 - Forgotten Principles.flac
Extracted successfully
Conclusion: this track is CDDA with probability 100%
Tempfile successfully deleted.

2 -===- D:\Melvins - Demos\02 - I Don't Need Your Money.flac
Extracted successfully
Conclusion: this track is CDDA with probability 100%
Tempfile successfully deleted.

3 -===- D:\Melvins - Demos\03 - Bang Your Head.flac
Extracted successfully
Conclusion: this track is CDDA with probability 100%
Tempfile successfully deleted.

4 -===- D:\Melvins - Demos\04 - I Never Know.flac
Extracted successfully
Conclusion: this track is CDDA with probability 100%
Tempfile successfully deleted.

5 -===- D:\Melvins - Demos\05 - Snake Appeal.flac
Extracted successfully
Conclusion: this track is CDDA with probability 100%
Tempfile successfully deleted.

6 -===- D:\Melvins - Demos\06 - Never The Same.flac
Extracted successfully
Conclusion: this track is CDDA with probability 100%
Tempfile successfully deleted.

7 -===- D:\Melvins - Demos\07 - Give Up.flac
Extracted successfully
Conclusion: this track is CDDA with probability 100%
Tempfile successfully deleted.

8 -===- D:\Melvins - Demos\08 - Set Me Straight.flac
Extracted successfully
Conclusion: this track is CDDA with probability 100%
Tempfile successfully deleted.

9 -===- D:\Melvins - Demos\09 - Again.flac
Extracted successfully
Conclusion: this track is CDDA with probability 100%
Tempfile successfully deleted.

Finished at: воскресенье, 30. 05. 2010. - 19:31.15 (operation time: 0:01.57)
Правила, инструкции, FAQ!!!
Торрент  Добавлен [24 авг 2016, 11:58] Скачать торрент Магнет ссылка
Скачать торрент
[ Размер 16.1 КБ / Просмотров 50 ]

Статус
Проверен 
 
Размер  96.66 МБ
Приватный: Нет (DHT включён)
.torrent скачан  0
 


     Отправить личное сообщение
   
Страница 1 из 1
Показать сообщения за:  Поле сортировки  
Начать новую тему Ответить на тему


Сейчас этот форум просматривают: нет зарегистрированных пользователей и гости: 0


Вы не можете начинать темы
Вы не можете отвечать на сообщения
Вы не можете редактировать свои сообщения
Вы не можете удалять свои сообщения
Вы не можете добавлять вложения

Перейти:  
cron