Начать новую тему Ответить на тему
Статистика раздачи
Размер: 371.5 МБ | Добавлен: 16 мар 2014, 00:37 | Скачали: 0
Сидеров: 1  [0 байт/сек]    Личеров: 0  [0 байт/сек]
Пред. тема | След. тема 

Автор
Сообщение

СообщениеДобавлено: 16 мар 2014, 00:37 

Ответить с цитатой 

Alanis Morissette - Jagged Little Pill (1995)

Год: 1995
Страна-производитель диска: Europe
Издатель (лейбл): Maverick, Reprise Records
Номер по каталогу #: 9362-45901-2
Жанр: Alternative Rock, Acoustic, Pop Rock
Продолжительность: 00:57:29

Кодек: FLAC (*.flac)
Битрейт: Lossless
Тип рипа: tracks+.cue
Спасибо: attami

Треклист:
01. All I Really Want - 4:45
02. You Oughta Know - 4:09
03. Perfect - 3:08
04. Hand In My Pocket - 3:41
05. Right Through You - 2:55
06. Forgiven - 5:00
07. You Learn - 3:59
08. Head Over Feet - 4:27
09. Mary Jane - 4:40
10. Ironic - 3:49
11. Not The Doctor - 3:47
12. Wake Up - 4:53
13. You Oughta Know (Alternative Version) - 8:11
Код:
Код:
Exact Audio Copy V1.0 beta 3 from 29. August 2011

EAC extraction logfile from 9. March 2013, 12:41

Alanis Morissette / Jagged Little Pill

Used drive  : Optiarc DVD RW AD-7710H   Adapter: 0  ID: 1

Read mode               : Secure
Utilize accurate stream : Yes
Defeat audio cache      : Yes
Make use of C2 pointers : No

Read offset correction                      : 48
Overread into Lead-In and Lead-Out          : No
Fill up missing offset samples with silence : Yes
Delete leading and trailing silent blocks   : No
Null samples used in CRC calculations       : Yes
Used interface                              : Native Win32 interface for Win NT & 2000
Gap handling                                : Appended to previous track

Used output format              : User Defined Encoder
Selected bitrate                : 128 kBit/s
Quality                         : High
Add ID3 tag                     : No
Command line compressor         : D:\programs\Exact Audio Copy v .1.0 beta 3\Exact Audio Copy\Flac\flac.exe
Additional command line options : -V -8 -T "Genre=%genre%" -T "Artist=%artist%" -T "Title=%title%" -T "Album=%albumtitle%" -T "Date=%year%" -T "Tracknumber=%tracknr%" -T "Comment=ripped by attami" %source%

TOC of the extracted CD

     Track |   Start  |  Length  | Start sector | End sector
    ---------------------------------------------------------
        1  |  0:00.00 |  4:45.47 |         0    |    21421
        2  |  4:45.47 |  4:09.10 |     21422    |    40106
        3  |  8:54.57 |  3:08.03 |     40107    |    54209
        4  | 12:02.60 |  3:41.47 |     54210    |    70831
        5  | 15:44.32 |  2:55.73 |     70832    |    84029
        6  | 18:40.30 |  5:00.17 |     84030    |   106546
        7  | 23:40.47 |  3:59.40 |    106547    |   124511
        8  | 27:40.12 |  4:27.33 |    124512    |   144569
        9  | 32:07.45 |  4:40.37 |    144570    |   165606
       10  | 36:48.07 |  3:49.55 |    165607    |   182836
       11  | 40:37.62 |  3:47.40 |    182837    |   199901
       12  | 44:25.27 |  4:53.35 |    199902    |   221911
       13  | 49:18.62 |  8:11.40 |    221912    |   258776

Track  1

     Filename D:\track+.cue_attami\Alanis Morissette - Jagged Little Pill\01. All I Really Want.wav

     Pre-gap length  0:00:02.00

     Peak level 97.4 %
     Extraction speed 1.2 X
     Track quality 100.0 %
     Test CRC 915AF97F
     Copy CRC 915AF97F
     Accurately ripped (confidence 44)  [CC1D87B9]  (AR v2)
     Copy OK

Track  2

     Filename D:\track+.cue_attami\Alanis Morissette - Jagged Little Pill\02. You Oughta Know.wav

     Pre-gap length  0:00:02.25

     Peak level 100.0 %
     Extraction speed 1.3 X
     Track quality 100.0 %
     Test CRC A572A0B7
     Copy CRC A572A0B7
     Accurately ripped (confidence 44)  [6D3C48F6]  (AR v2)
     Copy OK

Track  3

     Filename D:\track+.cue_attami\Alanis Morissette - Jagged Little Pill\03. Perfect.wav

     Pre-gap length  0:00:02.40

     Peak level 94.6 %
     Extraction speed 1.4 X
     Track quality 100.0 %
     Test CRC 81E9A9E4
     Copy CRC 81E9A9E4
     Accurately ripped (confidence 43)  [58A59AC1]  (AR v2)
     Copy OK

Track  4

     Filename D:\track+.cue_attami\Alanis Morissette - Jagged Little Pill\04. Hand In My Pocket.wav

     Pre-gap length  0:00:02.43

     Peak level 97.8 %
     Extraction speed 1.5 X
     Track quality 100.0 %
     Test CRC 9DCEF4A7
     Copy CRC 9DCEF4A7
     Accurately ripped (confidence 45)  [2E85A20E]  (AR v2)
     Copy OK

Track  5

     Filename D:\track+.cue_attami\Alanis Morissette - Jagged Little Pill\05. Right Through You.wav

     Pre-gap length  0:00:03.55

     Peak level 98.7 %
     Extraction speed 1.3 X
     Track quality 99.9 %
     Test CRC 5DD3B8D0
     Copy CRC 5DD3B8D0
     Accurately ripped (confidence 44)  [4CB78ED5]  (AR v2)
     Copy OK

Track  6

     Filename D:\track+.cue_attami\Alanis Morissette - Jagged Little Pill\06. Forgiven.wav

     Pre-gap length  0:00:03.33

     Peak level 100.0 %
     Extraction speed 1.7 X
     Track quality 100.0 %
     Test CRC 02EA4CC8
     Copy CRC 02EA4CC8
     Accurately ripped (confidence 43)  [8260C950]  (AR v2)
     Copy OK

Track  7

     Filename D:\track+.cue_attami\Alanis Morissette - Jagged Little Pill\07. You Learn.wav

     Pre-gap length  0:00:02.67

     Peak level 95.4 %
     Extraction speed 1.8 X
     Track quality 100.0 %
     Test CRC 9602EF2C
     Copy CRC 9602EF2C
     Accurately ripped (confidence 44)  [41636840]  (AR v2)
     Copy OK

Track  8

     Filename D:\track+.cue_attami\Alanis Morissette - Jagged Little Pill\08. Head Over Feet.wav

     Pre-gap length  0:00:00.65

     Peak level 97.1 %
     Extraction speed 1.9 X
     Track quality 100.0 %
     Test CRC B80EC06D
     Copy CRC B80EC06D
     Accurately ripped (confidence 43)  [25EA2027]  (AR v2)
     Copy OK

Track  9

     Filename D:\track+.cue_attami\Alanis Morissette - Jagged Little Pill\09. Mary Jane.wav

     Pre-gap length  0:00:03.60

     Peak level 100.0 %
     Extraction speed 1.8 X
     Track quality 99.9 %
     Test CRC 9571C5CD
     Copy CRC 9571C5CD
     Accurately ripped (confidence 42)  [D291D72B]  (AR v2)
     Copy OK

Track 10

     Filename D:\track+.cue_attami\Alanis Morissette - Jagged Little Pill\10. Ironic.wav

     Pre-gap length  0:00:02.67

     Peak level 95.3 %
     Extraction speed 1.8 X
     Track quality 99.9 %
     Test CRC 1DCBDEEB
     Copy CRC 1DCBDEEB
     Accurately ripped (confidence 42)  [05E2225F]  (AR v2)
     Copy OK

Track 11

     Filename D:\track+.cue_attami\Alanis Morissette - Jagged Little Pill\11. Not The Doctor.wav

     Pre-gap length  0:00:02.46

     Peak level 96.5 %
     Extraction speed 2.1 X
     Track quality 100.0 %
     Test CRC 55C53033
     Copy CRC 55C53033
     Accurately ripped (confidence 44)  [26B6DB2B]  (AR v2)
     Copy OK

Track 12

     Filename D:\track+.cue_attami\Alanis Morissette - Jagged Little Pill\12. Wake Up.wav

     Pre-gap length  0:00:02.67

     Peak level 100.0 %
     Extraction speed 2.0 X
     Track quality 99.9 %
     Test CRC 816826FD
     Copy CRC 816826FD
     Accurately ripped (confidence 40)  [A6930B54]  (AR v2)
     Copy OK

Track 13

     Filename D:\track+.cue_attami\Alanis Morissette - Jagged Little Pill\13. You Oughta Know (Alternate Mix).wav

     Pre-gap length  0:00:00.12

     Peak level 95.0 %
     Extraction speed 2.5 X
     Track quality 100.0 %
     Test CRC 2287D2D8
     Copy CRC 2287D2D8
     Accurately ripped (confidence 38)  [47D857D5]  (AR v2)
     Copy OK

All tracks accurately ripped

No errors occurred

End of status report

==== Log checksum 28B800D1AC4814616900541A811E64D4C95BBC3A73C83AEFA0764CC1FABECD90 ====
Код:
Код:
-----------------------

DON'T MODIFY THIS FILE

-----------------------

PERFORMER: auCDtect Task Manager, ver. 1.6.0 RC1 build 1.6.0.1
Copyright (c) 2008-2010 y-soft. All rights reserved
http:/y-soft.org

ANALYZER: auCDtect: CD records authenticity detector, version 0.8.2
Copyright (c) 2004 Oleg Berngardt. All rights reserved.
Copyright (c) 2004 Alexander Djourik. All rights reserved.

FILE: 13. You Oughta Know (Alternate Mix).flac
  Size: 45108624 Hash: A8D9AF679301FCE5F7CBD4C0B8FA33C2 Accuracy: -m0
  Conclusion: CDDA 99%
  Signature: 7E7EA7C7CF123E2FF72724972100A4C33F51BDBF
FILE: 12. Wake Up.flac
  Size: 36964748 Hash: 74C87F5DB2BA7384890249DF0C5FAAF8 Accuracy: -m0
  Conclusion: CDDA 100%
  Signature: CD46906108420E924B6C72B5F42F244B73E44CE7
FILE: 11. Not The Doctor.flac
  Size: 25695781 Hash: 936F7E48C069EC30CD6D3D061B18DB52 Accuracy: -m0
  Conclusion: CDDA 100%
  Signature: FA54A15D50396CDF430125D2C539706F93C61E92
FILE: 10. Ironic.flac
  Size: 25624872 Hash: 2C32A8BD4AFA8CA7AC51D71637FD5764 Accuracy: -m0
  Conclusion: CDDA 100%
  Signature: E2CAF512F83C65965C1BDA158CCE811FFECB397E
FILE: 09. Mary Jane.flac
  Size: 31157524 Hash: B6DACD3BB61E2B48AC0339A3F6C4C29A Accuracy: -m0
  Conclusion: CDDA 100%
  Signature: 170C5AB285C9744AF47F5E3AAE434BBC9FDA386A
FILE: 08. Head Over Feet.flac
  Size: 31720472 Hash: AC45AD6D1A0219CF5B53AAA342EE5811 Accuracy: -m0
  Conclusion: CDDA 100%
  Signature: 3BA676AB33DE12A16339A0C5ADF7D79F36B8A52F
FILE: 07. You Learn.flac
  Size: 28071099 Hash: 41C5C9F819A3CC89433889523279D3C0 Accuracy: -m0
  Conclusion: CDDA 100%
  Signature: 756AC6B3145449BE8E77D07BC8E4F7F20781076E
FILE: 06. Forgiven.flac
  Size: 36534573 Hash: 8A892A0BD3A94D9FFBF488557AA9156C Accuracy: -m0
  Conclusion: CDDA 100%
  Signature: FE9E128EEF8FF48F21B4CCB6D02262FBA6292DC4
FILE: 05. Right Through You.flac
  Size: 21636785 Hash: 8A5B6BEB8B7DF35224DBB95F934A4D6D Accuracy: -m0
  Conclusion: CDDA 100%
  Signature: 0285B8F37AB384FB4F3BB6862EA9A23919F534EE
FILE: 04. Hand In My Pocket.flac
  Size: 23322115 Hash: 1306E270E65D1E8BA41EF8102CD0B7F5 Accuracy: -m0
  Conclusion: CDDA 100%
  Signature: 55CA5170BE2985BE3AB590E1EFAC7F00A91C6C80
FILE: 03. Perfect.flac
  Size: 19683628 Hash: C4CE6E85EBCE8F1393483165F9839363 Accuracy: -m0
  Conclusion: CDDA 100%
  Signature: 8EF8B3FC4038F44F463F0A28AAE9941A7284F711
FILE: 02. You Oughta Know.flac
  Size: 30624744 Hash: 70AA2F245CDBA9BABFC09B71C10EC092 Accuracy: -m0
  Conclusion: CDDA 100%
  Signature: B432DCCB739FCC5FB820C5F3D36644DC878DBE29
FILE: 01. All I Really Want.flac
  Size: 33346446 Hash: 9A0ED8F091D939FD9BB018CA3DB4DC94 Accuracy: -m0
  Conclusion: CDDA 100%
  Signature: 21B94F9251E1858D2519E3E64362D6ACE7435D9D
Код:
Код:
REM GENRE "Alternative Rock"
REM DATE 1995
REM DISCID B10D7A0D
REM COMMENT "ExactAudioCopy v1.0b3"
CATALOG 9362459010209
PERFORMER "Alanis Morissette"
TITLE "Jagged Little Pill"
FILE "01. All I Really Want.wav" WAVE
  TRACK 01 AUDIO
    TITLE "All I Really Want"
    PERFORMER "Alanis Morissette"
    INDEX 01 00:00:00
  TRACK 02 AUDIO
    TITLE "You Oughta Know"
    PERFORMER "Alanis Morissette"
    INDEX 00 04:43:22
FILE "02. You Oughta Know.wav" WAVE
    INDEX 01 00:00:00
  TRACK 03 AUDIO
    TITLE "Perfect"
    PERFORMER "Alanis Morissette"
    INDEX 00 04:06:45
FILE "03. Perfect.wav" WAVE
    INDEX 01 00:00:00
  TRACK 04 AUDIO
    TITLE "Hand In My Pocket"
    PERFORMER "Alanis Morissette"
    INDEX 00 03:05:35
FILE "04. Hand In My Pocket.wav" WAVE
    INDEX 01 00:00:00
  TRACK 05 AUDIO
    TITLE "Right Through You"
    PERFORMER "Alanis Morissette"
    INDEX 00 03:37:67
FILE "05. Right Through You.wav" WAVE
    INDEX 01 00:00:00
  TRACK 06 AUDIO
    TITLE "Forgiven"
    PERFORMER "Alanis Morissette"
    INDEX 00 02:52:40
FILE "06. Forgiven.wav" WAVE
    INDEX 01 00:00:00
  TRACK 07 AUDIO
    TITLE "You Learn"
    PERFORMER "Alanis Morissette"
    INDEX 00 04:57:25
FILE "07. You Learn.wav" WAVE
    INDEX 01 00:00:00
  TRACK 08 AUDIO
    TITLE "Head Over Feet"
    PERFORMER "Alanis Morissette"
    INDEX 00 03:58:50
FILE "08. Head Over Feet.wav" WAVE
    INDEX 01 00:00:00
  TRACK 09 AUDIO
    TITLE "Mary Jane"
    PERFORMER "Alanis Morissette"
    INDEX 00 04:23:48
FILE "09. Mary Jane.wav" WAVE
    INDEX 01 00:00:00
  TRACK 10 AUDIO
    TITLE "Ironic"
    PERFORMER "Alanis Morissette"
    INDEX 00 04:37:45
FILE "10. Ironic.wav" WAVE
    INDEX 01 00:00:00
  TRACK 11 AUDIO
    TITLE "Not The Doctor"
    PERFORMER "Alanis Morissette"
    INDEX 00 03:47:09
FILE "11. Not The Doctor.wav" WAVE
    INDEX 01 00:00:00
  TRACK 12 AUDIO
    TITLE "Wake Up"
    PERFORMER "Alanis Morissette"
    INDEX 00 03:44:48
FILE "12. Wake Up.wav" WAVE
    INDEX 01 00:00:00
  TRACK 13 AUDIO
    TITLE "You Oughta Know (Alternate Mix)"
    PERFORMER "Alanis Morissette"
    INDEX 00 04:53:23
FILE "13. You Oughta Know (Alternate Mix).wav" WAVE
    INDEX 01 00:00:00

Правила, инструкции, FAQ!!!
Торрент  Добавлен [16 мар 2014, 00:37] Скачать торрент Магнет ссылка
Скачать торрент
[ Размер 16.21 КБ / Просмотров 20 ]

Статус  
 
Размер  371.5 МБ
Приватный: Нет (DHT включён)
.torrent скачан  0
 


     Отправить личное сообщение
   
Страница 1 из 1
Показать сообщения за:  Поле сортировки  
Начать новую тему Ответить на тему


Сейчас этот форум просматривают: нет зарегистрированных пользователей и гости: 0


Вы не можете начинать темы
Вы не можете отвечать на сообщения
Вы не можете редактировать свои сообщения
Вы не можете удалять свои сообщения
Вы не можете добавлять вложения

Перейти:  
cron