Начать новую тему Ответить на тему
Статистика раздачи
Размер: 484.07 МБ | Добавлен: 16 мар 2014, 00:38 | Скачали: 3
Сидеров: 4  [0 байт/сек]    Личеров: 1  [0 байт/сек]
Пред. тема | След. тема 

Автор
Сообщение

СообщениеДобавлено: 16 мар 2014, 00:38 

Ответить с цитатой 


Age of Days (formerly Age of Daze)
- 2 Альбома





Год выпуска: 2007-2013
Жанр: Alt. Rock | Modern Rock | Post-Grunge
Продолжительность: 01:03:42
Тип издания: Дискография
Страна: Canada



Треклист:

01. Afflicted
02. Change Everything
03. Believe
04. Overrated
05. In The Moment
06. Thought You Should Know
07. Cure For You
08. Bonus Track (Afflicted Acoustic)

Продолжительность: 00:57:50

Код:
Код:
Exact Audio Copy V0.99 prebeta 5 from 4. May 2009
Отчёт EAC об извлечении, выполненном 20. октября 2010, 14:26
Age Of Daze / Hollywood Ending
Дисковод: MATSHITABD-MLT UJ240ES   Adapter: 0  ID: 1
Режим чтения                 : Достоверность
Использование точного потока : Да
Отключение кэша аудио        : Да
Использование указателей C2  : Нет
Коррекция смещения при чтении                     : 103
Способность читать области Lead-in и Lead-out     : Нет
Заполнение пропущенных сэмплов тишиной            : Да
Удаление блоков с тишиной в начале и конце        : Нет
При вычислениях CRC использовались нулевые сэмплы : Да
Интерфейс                                         : Встроенный Win32-интерфейс для Win NT/2000
Выходной формат          : Пользовательский кодировщик
Выбранный битрейт        : 1024 kBit/s
Качество                 : Высокий
Добавление ID3-тэга      : Нет
Утилита сжатия           : C:\Program Files (x86)\Exact Audio Copy\FLAC\FLAC.EXE
Дополнительные параметры : -6 -V -T "ARTIST=%a" -T "TITLE=%t" -T "ALBUM=%g" -T "DATE=%y" -T "TRACKNUMBER=%n" -T "GENRE=%m" -T "COMMENT=%e" %s -o %d
TOC извлечённого CD
     Трек |   Старт  | Длительность | Начальный сектор | Конечный сектор
    ---------------------------------------------------------------------
       1  |  0:00.00 |    3:26.37   |           0      |      15486
       2  |  3:26.37 |    3:49.01   |       15487      |      32662
       3  |  7:15.38 |    3:35.26   |       32663      |      48813
       4  | 10:50.64 |    3:14.44   |       48814      |      63407
       5  | 14:05.33 |    3:52.38   |       63408      |      80845
       6  | 17:57.71 |    3:53.70   |       80846      |      98390
       7  | 21:51.66 |    3:23.53   |       98391      |     113668
       8  | 25:15.44 |    3:39.63   |      113669      |     130156
Характеристики диапазона извлечения и сообщения об ошибках
Выбранный диапазон
     Имя файла C:\Users\Николай\Desktop\Age Of Daze - Hollywood Ending.wav
     Пиковый уровень 100.0 %
     Качество диапазона 100.0 %
     CRC копии D1FBA3DB
     Копирование... OK
Ошибок не произошло
AccurateRip: сводка
Трек  1  точное извлечение (доверие 5)  [CB66873D]
Трек  2  точное извлечение (доверие 5)  [4977108A]
Трек  3  точное извлечение (доверие 5)  [20F04CFE]
Трек  4  точность не определена (достоверность 5)  [F599E8F7], AccurateRip вернул [6EC8116C]
Трек  5  точное извлечение (доверие 5)  [B789AD44]
Трек  6  точное извлечение (доверие 5)  [B1D0B02D]
Трек  7  точное извлечение (доверие 5)  [88F1CB39]
Трек  8  точное извлечение (доверие 5)  [D8E4FDD6]
 7 трек(и) скопированы точно
 1 трек(и) не удалось проверить на точность
Некоторые треки не прошли проверку на точность
Конец отчёта

Код:
Код:
-----------------------

DON'T MODIFY THIS FILE

-----------------------

PERFORMER: auCDtect Task Manager, ver. 1.6.0 RC1 build 1.6.0.1
Copyright (c) 2008-2010 y-soft. All rights reserved
http:/y-soft.org

ANALYZER: auCDtect: CD records authenticity detector, version 0.8.2
Copyright (c) 2004 Oleg Berngardt. All rights reserved.
Copyright (c) 2004 Alexander Djourik. All rights reserved.

FILE: 08. Age Of Daze - Bonus Track (Afflicted Acoustic).flac
  Size: 26813954 Hash: D09C1F8536A5F383BD5FB168BE205A59 Accuracy: -m0
  Conclusion: CDDA 100%
  Signature: 46F3FA94A37C8F741CA912049DB50339F60360D2
FILE: 07. Age Of Daze - Cure For You.flac
  Size: 27135974 Hash: E009207921F0DCB009C306D3E656DFD8 Accuracy: -m0
  Conclusion: CDDA 99%
  Signature: 073FF339BEC01DFB156F14C6C6B118270D695737
FILE: 06. Age Of Daze - Thought You Should Know.flac
  Size: 30616259 Hash: 57C2AF98C535F7FC71A1DE0237CDCBF6 Accuracy: -m0
  Conclusion: CDDA 100%
  Signature: C1FD46F7BE2C389CA79012A84125FE3E5D48D0F2
FILE: 05. Age Of Daze - In The Moment.flac
  Size: 31119688 Hash: 05F621610A5EF8A952CE3770F881774A Accuracy: -m0
  Conclusion: CDDA 100%
  Signature: 0DCC2FBB22DCFB37BEDBDFA3C8BB7F84AD83AAED
FILE: 04. Age Of Daze - Overrated.flac
  Size: 25941525 Hash: D186E69360E052718681A1ECDABBA74D Accuracy: -m0
  Conclusion: CDDA 100%
  Signature: AE59C9CFF5FA79DBBC316A7CC224482B5BFEBA56
FILE: 03. Age Of Daze - Believe.flac
  Size: 28090305 Hash: EE145DD865F5760CC28D7196259C6D14 Accuracy: -m0
  Conclusion: CDDA 100%
  Signature: 43257F7F3B8C474B93D6BEFC8BA0B19B0936C46C
FILE: 02. Age Of Daze - Change Everything.flac
  Size: 31354940 Hash: BEE53A91E2C321E986BEE76A32FE7294 Accuracy: -m0
  Conclusion: CDDA 100%
  Signature: 3BEFD9A893F59C23D6121D215815F5861DC2753E
FILE: 01. Age Of Daze - Afflicted.flac
  Size: 27697733 Hash: 444D77EE840E0E0EAF7705E66F593AEF Accuracy: -m0
  Conclusion: CDDA 100%
  Signature: 404C8114AE076508AFA2F5BA8C1B19DB9A376292


#777Треклист:

01. Bombs Away
02. Now or Never
03. Broken
04. Justify
05. Live Out Loud
06. I Did it for Love
07. Ready to Go
08. Wrecking Machine
09. Not Breathing
10. All I Know

Продолжительность: 00:34:47


Код:
Код:
Exact Audio Copy V1.0 beta 3 from 29. August 2011

EAC extraction logfile from 1. February 2014, 12:27

Age of Days / Radioactivity

Used drive  : HL-DT-STDVDRAM GT80N   Adapter: 0  ID: 0

Read mode               : Secure
Utilize accurate stream : Yes
Defeat audio cache      : Yes
Make use of C2 pointers : No

Read offset correction                      : 102
Overread into Lead-In and Lead-Out          : No
Fill up missing offset samples with silence : Yes
Delete leading and trailing silent blocks   : No
Null samples used in CRC calculations       : Yes
Used interface                              : Native Win32 interface for Win NT & 2000
Gap handling                                : Appended to previous track

Used output format              : User Defined Encoder
Selected bitrate                : 1024 kBit/s
Quality                         : High
Add ID3 tag                     : No
Command line compressor         : C:\Program Files (x86)\Exact Audio Copy\Flac\flac.exe
Additional command line options : -8 -V -T "ARTIST=%artist%" -T "TITLE=%title%" -T "ALBUM=%albumtitle%" -T "DATE=%year%" -T "TRACKNUMBER=%tracknr%" -T "GENRE=%genre%" -T "PERFORMER=%albuminterpret%" -T "COMPOSER=%composer%" %haslyrics%--tag-from-file=LYRICS="%lyricsfile%"%haslyrics% -T "ALBUMARTIST=%albumartist%" -T "DISCNUMBER=%cdnumber%" -T "TOTALDISCS=%totalcds%" -T "TOTALTRACKS=%numtracks%" -T "COMMENT=%comment%" %source% -o %dest%

TOC of the extracted CD

     Track |   Start  |  Length  | Start sector | End sector
    ---------------------------------------------------------
        1  |  0:00.00 |  3:04.63 |         0    |    13862
        2  |  3:04.63 |  3:54.35 |     13863    |    31447
        3  |  6:59.23 |  3:46.03 |     31448    |    48400
        4  | 10:45.26 |  3:04.74 |     48401    |    62274
        5  | 13:50.25 |  4:39.59 |     62275    |    83258
        6  | 18:30.09 |  3:39.64 |     83259    |    99747
        7  | 22:09.73 |  2:56.72 |     99748    |   113019
        8  | 25:06.70 |  3:23.74 |    113020    |   128318
        9  | 28:30.69 |  3:05.27 |    128319    |   142220
       10  | 31:36.21 |  3:11.23 |    142221    |   156568

Track  1

     Filename C:\Users\bredk_000\Desktop\Age of Days - 2013 - Radioactivity\01 - Bombs Away.wav

     Pre-gap length  0:00:02.00

     Peak level 98.8 %
     Extraction speed 2.3 X
     Track quality 100.0 %
     Test CRC FA846E4C
     Copy CRC FA846E4C
     Accurately ripped (confidence 1)  [CA6B2C00]  (AR v2)
     Copy OK

Track  2

     Filename C:\Users\bredk_000\Desktop\Age of Days - 2013 - Radioactivity\02 - Now or Never.wav

     Pre-gap length  0:00:00.17

     Peak level 98.8 %
     Extraction speed 2.7 X
     Track quality 100.0 %
     Test CRC 37ED98CD
     Copy CRC 37ED98CD
     Accurately ripped (confidence 1)  [7A0B8357]  (AR v2)
     Copy OK

Track  3

     Filename C:\Users\bredk_000\Desktop\Age of Days - 2013 - Radioactivity\03 - Broken.wav

     Pre-gap length  0:00:00.01

     Peak level 98.9 %
     Extraction speed 2.9 X
     Track quality 100.0 %
     Test CRC DF9E9B3A
     Copy CRC DF9E9B3A
     Accurately ripped (confidence 1)  [A4414426]  (AR v2)
     Copy OK

Track  4

     Filename C:\Users\bredk_000\Desktop\Age of Days - 2013 - Radioactivity\04 - Justify.wav

     Peak level 98.8 %
     Extraction speed 3.0 X
     Track quality 100.0 %
     Test CRC 89BE81CF
     Copy CRC 89BE81CF
     Accurately ripped (confidence 1)  [4C144CF6]  (AR v2)
     Copy OK

Track  5

     Filename C:\Users\bredk_000\Desktop\Age of Days - 2013 - Radioactivity\05 - Live Out Loud.wav

     Peak level 100.0 %
     Extraction speed 3.0 X
     Track quality 100.0 %
     Test CRC 7F518AB0
     Copy CRC 7F518AB0
     Accurately ripped (confidence 1)  [E52C7CBC]  (AR v2)
     Copy OK

Track  6

     Filename C:\Users\bredk_000\Desktop\Age of Days - 2013 - Radioactivity\06 - I Did it for Love.wav

     Pre-gap length  0:00:01.26

     Peak level 98.9 %
     Extraction speed 3.5 X
     Track quality 100.0 %
     Test CRC 7AF6769A
     Copy CRC 7AF6769A
     Accurately ripped (confidence 1)  [FCE4B2E5]  (AR v2)
     Copy OK

Track  7

     Filename C:\Users\bredk_000\Desktop\Age of Days - 2013 - Radioactivity\07 - Ready to Go.wav

     Peak level 98.9 %
     Extraction speed 2.7 X
     Track quality 99.9 %
     Test CRC CDA752C0
     Copy CRC CDA752C0
     Accurately ripped (confidence 1)  [47BD952E]  (AR v2)
     Copy OK

Track  8

     Filename C:\Users\bredk_000\Desktop\Age of Days - 2013 - Radioactivity\08 - Wrecking Machine.wav

     Pre-gap length  0:00:01.10

     Peak level 98.9 %
     Extraction speed 3.8 X
     Track quality 100.0 %
     Test CRC 8E5B5EC9
     Copy CRC 8E5B5EC9
     Accurately ripped (confidence 1)  [0D441A23]  (AR v2)
     Copy OK

Track  9

     Filename C:\Users\bredk_000\Desktop\Age of Days - 2013 - Radioactivity\09 - Not Breathing.wav

     Peak level 98.9 %
     Extraction speed 3.9 X
     Track quality 100.0 %
     Test CRC 8AD17655
     Copy CRC 8AD17655
     Accurately ripped (confidence 1)  [1CDE9EC5]  (AR v2)
     Copy OK

Track 10

     Filename C:\Users\bredk_000\Desktop\Age of Days - 2013 - Radioactivity\10 - All I Know.wav

     Peak level 98.9 %
     Extraction speed 4.1 X
     Track quality 100.0 %
     Test CRC BD23BCE6
     Copy CRC BD23BCE6
     Accurately ripped (confidence 1)  [3A29E7E8]  (AR v2)
     Copy OK

All tracks accurately ripped

No errors occurred

End of status report

---- CUETools DB Plugin V2.1.3

[CTDB TOCID: Gpmk.9oRxjiDOYtXy6OOjkBcZOk-] found, Submit result: Gpmk.9oRxjiDOYtXy6OOjkBcZOk- has been confirmed
[a2fbcdb5] (1/1) Accurately ripped

==== Log checksum C00A518A4FE356E973D3F4C829830F96F67F5063F3A261FB6EF5162BC869F82F ====


Код:
Код:
-----------------------

DON'T MODIFY THIS FILE

-----------------------

PERFORMER: auCDtect Task Manager, ver. 1.6.0 RC1 build 1.6.0.1
Copyright (c) 2008-2010 y-soft. All rights reserved
http:/y-soft.org

ANALYZER: auCDtect: CD records authenticity detector, version 0.8.2
Copyright (c) 2004 Oleg Berngardt. All rights reserved.
Copyright (c) 2004 Alexander Djourik. All rights reserved.

FILE: 10. Age of Days - All I Know.flac
  Size: 25971284 Hash: B632A5C5BB229BEA0376DB9EA834B0CD Accuracy: -m0
  Conclusion: CDDA 100%
  Signature: AB5265D7CED00190FDBD92C034D0D0FF7169599E
FILE: 09. Age of Days - Not Breathing.flac
  Size: 24933793 Hash: A29420A9012D672023FAD2F377F7AF5B Accuracy: -m0
  Conclusion: CDDA 99%
  Signature: 5CFAE1BCA6D68B548EBD9702080D6E1BAB6F1757
FILE: 08. Age of Days - Wrecking Machine.flac
  Size: 26583682 Hash: 7FC701F1CB575EC4538684ABDF20AA43 Accuracy: -m0
  Conclusion: CDDA 100%
  Signature: E3F19AD0EBAC69ABDB4A1D1FF1E3CCAD66BF327C
FILE: 07. Age of Days - Ready to Go.flac
  Size: 24442049 Hash: 365A5599DE14F0DAF3B2FBCE6D8B317F Accuracy: -m0
  Conclusion: CDDA 100%
  Signature: D0D87D016A117A827B2F30750B19F092724642B5
FILE: 06. Age of Days - I Did it for Love.flac
  Size: 30125168 Hash: B5376532E87EBC3A71D7FEA6F18A1B4D Accuracy: -m0
  Conclusion: CDDA 100%
  Signature: C2F4C61C090FB71CF93294E76310CFC4EFA81EED
FILE: 05. Age of Days - Live Out Loud.flac
  Size: 34782340 Hash: 3DBF0F6A8995D990FD6EA09FD5C672B5 Accuracy: -m0
  Conclusion: CDDA 99%
  Signature: 677217248BCF88FE484829CB1BA1168333682474
FILE: 04. Age of Days - Justify.flac
  Size: 23842579 Hash: DD1184C48791C44897DA31B1E9A3DDFC Accuracy: -m0
  Conclusion: CDDA 100%
  Signature: 212D1AB4EB87AD85E8ACA11E1149304C6267B21D
FILE: 03. Age of Days - Broken.flac
  Size: 29445522 Hash: 3BCBAEC2054ADFF4B37A4A029EFCC5DB Accuracy: -m0
  Conclusion: CDDA 100%
  Signature: 94D067A55F9420CDBCC1BE1453958B2DCD38376B
FILE: 02. Age of Days - Now or Never.flac
  Size: 29875910 Hash: 5F9D32DEEB04520C3FC79B5B8F13A6F0 Accuracy: -m0
  Conclusion: CDDA 100%
  Signature: 43ABCEF86F835B335A41D4A974FF4B54B123E6D4
FILE: 01. Age of Days - Bombs Away.flac
  Size: 24594634 Hash: 436F3F380628ACFD435F7D0FA4C3828F Accuracy: -m0
  Conclusion: CDDA 100%
  Signature: 9CDF4F7795759421579CBF11F856262AA515B943



Тип рипа: Tracks+.cue
Аудиокодек: FLAC
Битрейт аудио: lossless
Правила, инструкции, FAQ!!!
Торрент  Добавлен [16 мар 2014, 00:38] Скачать торрент Магнет ссылка
Скачать торрент
[ Размер 21.8 КБ / Просмотров 115 ]

Статус  
 
Размер  484.07 МБ
Приватный: Нет (DHT включён)
.torrent скачан  3
 


     Отправить личное сообщение
   
Страница 1 из 1
Показать сообщения за:  Поле сортировки  
Начать новую тему Ответить на тему


Сейчас этот форум просматривают: нет зарегистрированных пользователей и гости: 0


Вы не можете начинать темы
Вы не можете отвечать на сообщения
Вы не можете редактировать свои сообщения
Вы не можете удалять свои сообщения
Вы не можете добавлять вложения

Перейти:  
cron