Начать новую тему Ответить на тему
Статистика раздачи
Размер: 205.09 МБ | Добавлен: 16 мар 2014, 00:37 | Скачали: 4
Сидеров: 1  [0 байт/сек]    Личеров: 1  [0 байт/сек]
Пред. тема | След. тема 

Автор
Сообщение

СообщениеДобавлено: 16 мар 2014, 00:37 

Ответить с цитатой 

Against Me! - Transgender Dysphoria Blues (2014)

Год: 2014
Жанр: Alternative Rock/Punk-Rock
Страна: США
Продолжительность: 00:28:47

Кодек: FLAC (tracks+.cue)
Битрейт: Lossless

Треклист:
01. Transgender Dysphoria Blues (3:16)
02. True Trans Soul Rebel (3:13)
03. Unconditional Love (2:52)
04. Drinking With The Jocks (1:49)
05. Osama Bin Laden As The Crucified Christ (2:58)
06. FUCKMYLIFE666 (2:57)
07. Dead Friend (3:02)
08. Two Coffins (2:20)
09. Paralytic States (3:13)
10. Black Me Out (3:08)
#777Against Me!— американская рок-группа, образовавшаяся в 1997 году в Нейплсе, Флорида, и исполняющая панк-рок с элементами фолк-рока. Три первых альбома Against Me! выпустили на независимых лейблах, в 2005 году перешли на Sire: здесь в декабре 2007 года вышел альбом New Wave, принесший им международную известность.

Фронтмен группы Том Гейбл (Tom Gabel) стал ее фронтвумен. Теперь эту девушку зовут Лора Джейн Грейс (Laura Jane Grace), и она является первым трансгендером среди чартовых рок-музыкантов. Лора продолжает писать музыку и давать концерты вместе с Against Me! (остальные участники группы отныне называют Лору исключительно местоимением "она" и воспринимают как женщину).

Состав:
Laura Jane Grace - гитара, вокал
James Bowman - гитара, вокал
Atom Willard - ударные
Inge Johansson - бас

Код:
Код:
Exact Audio Copy V1.0 beta 3 from 29. August 2011

EAC extraction logfile from 21. January 2014, 23:09

Against me! / Transgender Dysphoria Blues

Used drive  : TSSTcorpCDDVDW TS-H663B   Adapter: 4  ID: 0

Read mode               : Secure
Utilize accurate stream : Yes
Defeat audio cache      : Yes
Make use of C2 pointers : No

Read offset correction                      : 6
Overread into Lead-In and Lead-Out          : No
Fill up missing offset samples with silence : Yes
Delete leading and trailing silent blocks   : No
Null samples used in CRC calculations       : Yes
Used interface                              : Native Win32 interface for Win NT & 2000
Gap handling                                : Appended to previous track

Used output format              : User Defined Encoder
Selected bitrate                : 1024 kBit/s
Quality                         : High
Add ID3 tag                     : No
Command line compressor         : C:\Program Files (x86)\Exact Audio Copy\Flac\flac.exe
Additional command line options : -8 -V -T "ARTIST=%artist%" -T "TITLE=%title%" -T "ALBUM=%albumtitle%" -T "DATE=%year%" -T "TRACKNUMBER=%tracknr%" -T "GENRE=%genre%" -T "PERFORMER=%albuminterpret%" -T "COMPOSER=%composer%" %haslyrics%--tag-from-file=LYRICS="%lyricsfile%"%haslyrics% -T "ALBUMARTIST=%albumartist%" -T "DISCNUMBER=%cdnumber%" -T "TOTALDISCS=%totalcds%" -T "TOTALTRACKS=%numtracks%" -T "COMMENT=%comment%" %source% -o %dest%

TOC of the extracted CD

     Track |   Start  |  Length  | Start sector | End sector
    ---------------------------------------------------------
        1  |  0:00.00 |  3:16.30 |         0    |    14729
        2  |  3:16.30 |  3:12.61 |     14730    |    29190
        3  |  6:29.16 |  2:51.42 |     29191    |    42057
        4  |  9:20.58 |  1:48.41 |     42058    |    50198
        5  | 11:09.24 |  2:57.61 |     50199    |    63534
        6  | 14:07.10 |  2:56.41 |     63535    |    76775
        7  | 17:03.51 |  3:02.30 |     76776    |    90455
        8  | 20:06.06 |  2:20.14 |     90456    |   100969
        9  | 22:26.20 |  3:12.44 |    100970    |   115413
       10  | 25:38.64 |  3:07.61 |    115414    |   129499

Track  1

     Filename D:\EAC Rips\Against Me! - Transgender Dysphoria Blues [2014] - FLAC\01 - Transgender Dysphoria Blues.wav

     Pre-gap length  0:00:02.00

     Peak level 98.8 %
     Extraction speed 1.7 X
     Track quality 100.0 %
     Test CRC 7323F97B
     Copy CRC 7323F97B
     Track not present in AccurateRip database
     Copy OK

Track  2

     Filename D:\EAC Rips\Against Me! - Transgender Dysphoria Blues [2014] - FLAC\02 - True Trans Soul Rebel.wav

     Peak level 98.8 %
     Extraction speed 1.9 X
     Track quality 100.0 %
     Test CRC 9619D943
     Copy CRC 9619D943
     Track not present in AccurateRip database
     Copy OK

Track  3

     Filename D:\EAC Rips\Against Me! - Transgender Dysphoria Blues [2014] - FLAC\03 - Unconditional Love.wav

     Peak level 98.8 %
     Extraction speed 2.0 X
     Track quality 100.0 %
     Test CRC 3A2EF907
     Copy CRC 3A2EF907
     Track not present in AccurateRip database
     Copy OK

Track  4

     Filename D:\EAC Rips\Against Me! - Transgender Dysphoria Blues [2014] - FLAC\04 - Drinking With The Jocks.wav

     Peak level 98.8 %
     Extraction speed 1.4 X
     Track quality 99.9 %
     Test CRC 226A19C2
     Copy CRC 226A19C2
     Track not present in AccurateRip database
     Copy OK

Track  5

     Filename D:\EAC Rips\Against Me! - Transgender Dysphoria Blues [2014] - FLAC\05 - Osama Bin Laden As The Crucified Christ.wav

     Pre-gap length  0:00:01.12

     Peak level 98.8 %
     Extraction speed 2.2 X
     Track quality 100.0 %
     Test CRC A0140A4A
     Copy CRC A0140A4A
     Track not present in AccurateRip database
     Copy OK

Track  6

     Filename D:\EAC Rips\Against Me! - Transgender Dysphoria Blues [2014] - FLAC\06 - FUCKMYLIFE666.wav

     Pre-gap length  0:00:01.40

     Peak level 98.8 %
     Extraction speed 2.3 X
     Track quality 100.0 %
     Test CRC FCA07E7B
     Copy CRC FCA07E7B
     Track not present in AccurateRip database
     Copy OK

Track  7

     Filename D:\EAC Rips\Against Me! - Transgender Dysphoria Blues [2014] - FLAC\07 - Dead Friend.wav

     Peak level 98.8 %
     Extraction speed 2.4 X
     Track quality 100.0 %
     Test CRC 4152FD6C
     Copy CRC 4152FD6C
     Track not present in AccurateRip database
     Copy OK

Track  8

     Filename D:\EAC Rips\Against Me! - Transgender Dysphoria Blues [2014] - FLAC\08 - Two Coffins.wav

     Pre-gap length  0:00:01.72

     Peak level 95.5 %
     Extraction speed 2.4 X
     Track quality 100.0 %
     Test CRC 91072F96
     Copy CRC 91072F96
     Track not present in AccurateRip database
     Copy OK

Track  9

     Filename D:\EAC Rips\Against Me! - Transgender Dysphoria Blues [2014] - FLAC\09 - Paralytic States.wav

     Peak level 98.8 %
     Extraction speed 2.6 X
     Track quality 100.0 %
     Test CRC C84F624A
     Copy CRC C84F624A
     Track not present in AccurateRip database
     Copy OK

Track 10

     Filename D:\EAC Rips\Against Me! - Transgender Dysphoria Blues [2014] - FLAC\10 - Black Me Out.wav

     Pre-gap length  0:00:01.44

     Peak level 98.8 %
     Extraction speed 2.7 X
     Track quality 100.0 %
     Test CRC 73305612
     Copy CRC 73305612
     Track not present in AccurateRip database
     Copy OK

None of the tracks are present in the AccurateRip database

No errors occurred

End of status report

---- CUETools DB Plugin V2.1.3

[CTDB TOCID: hEduGxuI_7AlCktI9qy0bnCf8C0-] disk not present in database, Submit result: hEduGxuI_7AlCktI9qy0bnCf8C0- has been uploaded

==== Log checksum 5EABDBA5A28992CA3227C4B64798448AD4F4DE9E9C04C647A33D05E2D6DE9B0A ====
Код:
Код:
-----------------------

DON'T MODIFY THIS FILE

-----------------------

PERFORMER: auCDtect Task Manager, ver. 1.5.1RC4 build 1.5.1.5
Copyright (c) 2008-2010 y-soft. All rights reserved
http:/y-soft.org

ANALYZER: auCDtect: CD records authenticity detector, version 0.8.2
Copyright (c) 2004 Oleg Berngardt. All rights reserved.
Copyright (c) 2004 Alexander Djourik. All rights reserved.

FILE: 10 - Black Me Out.flac
  Size: 21425747 Hash: 2E67517B174416850D1214E17ADF7E32 Accuracy: -m0
  Conclusion: CDDA 100%
  Signature: 9273A72BE1FFEE269D0FC86633FD45E8157E76F4
FILE: 09 - Paralytic States.flac
  Size: 24584605 Hash: AF8B8A0D4DAC8F2BECBCF8CF941F6719 Accuracy: -m0
  Conclusion: CDDA 99%
  Signature: DD70140BB805DBD459D73AD221A8DE1194EDCD99
FILE: 08 - Two Coffins.flac
  Size: 16099283 Hash: A6588A0857BF11A7D1C3500FA585C46C Accuracy: -m0
  Conclusion: CDDA 100%
  Signature: EBAC52E35220FF99247C699EF163569C0AE1E623
FILE: 07 - Dead Friend.flac
  Size: 21673248 Hash: 329B05553D9192CB56FDC26479501002 Accuracy: -m0
  Conclusion: CDDA 100%
  Signature: 5DC699616BD0AAE9C126EBD228B10E7A3AB648C4
FILE: 06 - FUCKMYLIFE666.flac
  Size: 22150052 Hash: 3756387D6B125CC17080E1CD8AB10E06 Accuracy: -m0
  Conclusion: CDDA 99%
  Signature: 1FDEFB280411A892F0754921ABE9159047B99F96
FILE: 05 - Osama Bin Laden As The Crucified Christ.flac
  Size: 22947603 Hash: 46E6528ACC87ED43E74621EE21FDACA6 Accuracy: -m0
  Conclusion: CDDA 100%
  Signature: B814DA4D5BAD565CCBAA5DA142B38CC27FC1ED66
FILE: 04 - Drinking With The Jocks.flac
  Size: 13909920 Hash: 30ABAAF9C985A6B35A50F86A72AEC89B Accuracy: -m0
  Conclusion: CDDA 100%
  Signature: 1F4932B21872FDDDE0E670C5E2356EF7B908BB31
FILE: 03 - Unconditional Love.flac
  Size: 22136085 Hash: 193330D59D2B26BD05765C7444471874 Accuracy: -m0
  Conclusion: CDDA 99%
  Signature: 39566970CA3C8EF39431AA0FEFFAE6FAC1F84500
FILE: 02 - True Trans Soul Rebel.flac
  Size: 25230779 Hash: 80B9E5D82F64EE867F231C34BE4FC745 Accuracy: -m0
  Conclusion: CDDA 100%
  Signature: AF1DC0E09FA1893564D0804582C2E61BB0896D22
FILE: 01 - Transgender Dysphoria Blues.flac
  Size: 24236137 Hash: 1F5A76E37FEB7D6F061947C7005C54E6 Accuracy: -m0
  Conclusion: CDDA 99%
  Signature: 8EA739C721FD4B6DCFD424C5CD88F74605B6B483
Правила, инструкции, FAQ!!!
Торрент  Добавлен [16 мар 2014, 00:37] Скачать торрент Магнет ссылка
Скачать торрент
[ Размер 17.64 КБ / Просмотров 52 ]

Статус  
 
Размер  205.09 МБ
Приватный: Нет (DHT включён)
.torrent скачан  4
 


     Отправить личное сообщение
   
Страница 1 из 1
Показать сообщения за:  Поле сортировки  
Начать новую тему Ответить на тему


Сейчас этот форум просматривают: нет зарегистрированных пользователей и гости: 0


Вы не можете начинать темы
Вы не можете отвечать на сообщения
Вы не можете редактировать свои сообщения
Вы не можете удалять свои сообщения
Вы не можете добавлять вложения

Перейти:  
cron