Начать новую тему Ответить на тему
Статистика раздачи
Размер: 996.43 МБ | Добавлен: 16 мар 2014, 00:49 | Скачали: 0
Сидеров: 1  [0 байт/сек]    Личеров: 1  [0 байт/сек]
Пред. тема | След. тема 

Автор
Сообщение

СообщениеДобавлено: 16 мар 2014, 00:49 

Ответить с цитатой 


Adept
- 3 Альбома





Год выпуска: 2010-2013
Жанр: Post-Hardcore
Продолжительность: 02:06:02
Тип издания: Дискография
Страна: Швеция



Треклист:

01. The Business Of Living
02. Shark!Shark!Shark!
03. Sound The Alarm
04. At Least Give Me My Dreams Back, You Negligent Whore!
05. Caution! Boys Night Out!
06. The Ballad Of Planet Earth
07. Let's Celebrate, Gorgeous! (You Know Whose Party This Is)
08. Grow Up, Peter Pan!
09. An Era Of Treachery
10. Everything Dies

Продолжительность: 00:43:18

Код:
Код:
Exact Audio Copy V0.99 prebeta 5 from 4. May 2009

EAC extraction logfile from 12. August 2009, 19:22

Adept / Another Year Of Disaster

Used drive  : TSSTcorpCD/DVDW SH-S182M   Adapter: 1  ID: 0

Read mode               : Secure
Utilize accurate stream : Yes
Defeat audio cache      : No
Make use of C2 pointers : No

Read offset correction                      : 6
Overread into Lead-In and Lead-Out          : No
Fill up missing offset samples with silence : Yes
Delete leading and trailing silent blocks   : No
Null samples used in CRC calculations       : Yes
Used interface                              : Native Win32 interface for Win NT & 2000
Gap handling                                : Appended to previous track

Used output format              : User Defined Encoder
Selected bitrate                : 320 kBit/s
Quality                         : High
Add ID3 tag                     : No
Command line compressor         : C:\Program Files (x86)\Exact Audio Copy\Flac\flac.exe
Additional command line options : -V -8 -T "artist=%a" -T "title=%t" -T "album=%g" -T "date=%y" -T "tracknumber=%n" -T "genre=%m" %s

TOC of the extracted CD

     Track |   Start  |  Length  | Start sector | End sector
    ---------------------------------------------------------
        1  |  0:00.00 |  4:12.31 |         0    |    18930
        2  |  4:12.31 |  4:18.30 |     18931    |    38310
        3  |  8:30.61 |  4:37.51 |     38311    |    59136
        4  | 13:08.37 |  5:10.05 |     59137    |    82391
        5  | 18:18.42 |  4:03.38 |     82392    |   100654
        6  | 22:22.05 |  2:25.39 |    100655    |   111568
        7  | 24:47.44 |  4:24.07 |    111569    |   131375
        8  | 29:11.51 |  3:27.57 |    131376    |   146957
        9  | 32:39.33 |  4:37.50 |    146958    |   167782
       10  | 37:17.08 |  6:01.36 |    167783    |   194893

Track  1

     Filename C:\EACrips\Adept - Another Year Of Disaster (2009)\01 - The Business Of Living.wav

     Pre-gap length  0:00:02.00

     Peak level 97.7 %
     Track quality 100.0 %
     Test CRC 24162401
     Copy CRC 24162401
     Track not present in AccurateRip database
     Copy OK

Track  2

     Filename C:\EACrips\Adept - Another Year Of Disaster (2009)\02 - Shark!Shark!Shark!.wav

     Peak level 97.7 %
     Track quality 100.0 %
     Test CRC 8AB3F86F
     Copy CRC 8AB3F86F
     Track not present in AccurateRip database
     Copy OK

Track  3

     Filename C:\EACrips\Adept - Another Year Of Disaster (2009)\03 - Sound The Alarm.wav

     Peak level 100.0 %
     Track quality 100.0 %
     Test CRC A233FF43
     Copy CRC A233FF43
     Track not present in AccurateRip database
     Copy OK

Track  4

     Filename C:\EACrips\Adept - Another Year Of Disaster (2009)\04 - At Least Give Me My Dreams Back, You Negligent Whore!.wav

     Peak level 97.7 %
     Track quality 100.0 %
     Test CRC 7FF232B9
     Copy CRC 7FF232B9
     Track not present in AccurateRip database
     Copy OK

Track  5

     Filename C:\EACrips\Adept - Another Year Of Disaster (2009)\05 - Caution! Boys Night Out!.wav

     Pre-gap length  0:00:00.04

     Peak level 97.7 %
     Track quality 100.0 %
     Test CRC A7EDA6B5
     Copy CRC A7EDA6B5
     Track not present in AccurateRip database
     Copy OK

Track  6

     Filename C:\EACrips\Adept - Another Year Of Disaster (2009)\06 - The Ballad Of Planet Earth.wav

     Pre-gap length  0:00:00.52

     Peak level 97.7 %
     Track quality 100.0 %
     Test CRC E8CA2D9B
     Copy CRC E8CA2D9B
     Track not present in AccurateRip database
     Copy OK

Track  7

     Filename C:\EACrips\Adept - Another Year Of Disaster (2009)\07 - Let's Celebrate, Gorgeous! (You Know Whose Party This Is).wav

     Peak level 97.8 %
     Track quality 100.0 %
     Test CRC 9CEA732E
     Copy CRC 9CEA732E
     Track not present in AccurateRip database
     Copy OK

Track  8

     Filename C:\EACrips\Adept - Another Year Of Disaster (2009)\08 - Grow Up, Peter Pan!.wav

     Pre-gap length  0:00:00.29

     Peak level 97.7 %
     Track quality 100.0 %
     Test CRC 644232A1
     Copy CRC 644232A1
     Track not present in AccurateRip database
     Copy OK

Track  9

     Filename C:\EACrips\Adept - Another Year Of Disaster (2009)\09 - An Era Of Treachery.wav

     Pre-gap length  0:00:00.01

     Peak level 97.7 %
     Track quality 100.0 %
     Test CRC FA929FBD
     Copy CRC FA929FBD
     Track not present in AccurateRip database
     Copy OK

Track 10

     Filename C:\EACrips\Adept - Another Year Of Disaster (2009)\10 - Everything Dies.wav

     Peak level 100.0 %
     Track quality 100.0 %
     Test CRC 433C60CC
     Copy CRC 433C60CC
     Track not present in AccurateRip database
     Copy OK

None of the tracks are present in the AccurateRip database

No errors occurred

End of status report

Код:
Код:
-----------------------

DON'T MODIFY THIS FILE

-----------------------

PERFORMER: auCDtect Task Manager, ver. 1.5.1RC6 build 1.5.1.7
Copyright (c) 2008-2010 y-soft. All rights reserved
http:/y-soft.org

ANALYZER: auCDtect: CD records authenticity detector, version 0.8.2
Copyright (c) 2004 Oleg Berngardt. All rights reserved.
Copyright (c) 2004 Alexander Djourik. All rights reserved.

FILE: 10. Adept - Everything Dies.flac
  Size: 46590237 Hash: 437A6C1EB3D6C733E17A48CC6E513416 Accuracy: -m0
  Conclusion: CDDA 100%
  Signature: 71267388AB99811EB3E79B69E528EBFA38BBFFA8
FILE: 09. Adept - An Era Of Treachery.flac
  Size: 37089166 Hash: 638AB39CDE76E688D7C7F6C78BD5D746 Accuracy: -m0
  Conclusion: CDDA 99%
  Signature: DC58948BE70223925C93624DD3D6AB461FC01547
FILE: 08. Adept - Grow Up, Peter Pan!.flac
  Size: 28972265 Hash: 03A3FDD6785B3611B7EAE4E5D245A3CC Accuracy: -m0
  Conclusion: CDDA 99%
  Signature: 84BC3628B3981AEB36DE08A8405A33B973EAD3C5
FILE: 07. Adept - Let's Celebrate, Gorgeous! (You Know Whose Party This Is).flac
  Size: 35779497 Hash: F4C4EF31C97BC118F289A48F22BE6FA6 Accuracy: -m0
  Conclusion: CDDA 100%
  Signature: B63E70A6F675897BF7D661A1C8EBB93917B2AB76
FILE: 06. Adept - The Ballad Of Planet Earth.flac
  Size: 17126945 Hash: 6D0AF679C933FD3B2EDD0478724C685D Accuracy: -m0
  Conclusion: CDDA 100%
  Signature: D05BC64CF6F39F42E1C300AF1B67CB2EC31A7919
FILE: 05. Adept - Caution! Boys Night Out!.flac
  Size: 34331575 Hash: 67191C9858CE14A4698A04659786C97A Accuracy: -m0
  Conclusion: CDDA 100%
  Signature: 114AAE17ECEDFF4F854E1914AFA7D757D2DBCAC8
FILE: 04. Adept - At Least Give Me My Dreams Back, You Negligent Whore!.flac
  Size: 43481742 Hash: 9D9AAB97B5170CF808BDE44586428194 Accuracy: -m0
  Conclusion: CDDA 99%
  Signature: 11F056A51ECA49351C0B95E544F59116D3AE9443
FILE: 03. Adept - Sound The Alarm.flac
  Size: 39043122 Hash: CFA09E5B422E7DC0ABF663EF6655B323 Accuracy: -m0
  Conclusion: CDDA 100%
  Signature: 8BA7E59F833B4D33AAC880CFC0C96EB1F43FF884
FILE: 02. Adept - Shark!Shark!Shark!.flac
  Size: 33899218 Hash: 816C0AADEA9184372C6A376DB30A2A64 Accuracy: -m0
  Conclusion: CDDA 100%
  Signature: 88540C61FB761BD58CB5E3A267206C3E448D5E76
FILE: 01. Adept - The Business Of Living.flac
  Size: 35440597 Hash: 8B0D0C652774ACA8660790AE00761BAE Accuracy: -m0
  Conclusion: CDDA 100%
  Signature: 0ED2DF82C118E28F145F6E18E0F919D4A11EB4C9


#777Треклист:

01. First Round, First Minute
02. The Lost Boys
03. No Guts, No Glory
04. This Could Be You
05. At Worlds End
06. By The Wrath Of Akakabuto
07. If I'm A Failure, You're A Tragedy
08. Hope
09. Death Dealers
10. The Ivory Tower
11. From The Depths Of Hell
12. This Ends Tonight

Продолжительность: 00:


Код:
Код:
Exact Audio Copy V1.0 beta 1 from 15. November 2010

EAC extraction logfile from 28. February 2011, 16:26

Adept / Death Dealers

Used drive  : TSSTcorpDVD+-RW TS-H653F   Adapter: 1  ID: 0

Read mode               : Secure
Utilize accurate stream : Yes
Defeat audio cache      : Yes
Make use of C2 pointers : No

Read offset correction                      : 6
Overread into Lead-In and Lead-Out          : No
Fill up missing offset samples with silence : Yes
Delete leading and trailing silent blocks   : No
Null samples used in CRC calculations       : Yes
Used interface                              : Native Win32 interface for Win NT & 2000
Gap handling                                : Appended to previous track

Used output format              : User Defined Encoder
Selected bitrate                : 768 kBit/s
Quality                         : High
Add ID3 tag                     : No
Command line compressor         : C:\Program Files (x86)\Exact Audio Copy\Flac\flac.exe
Additional command line options : -V -8 -T "artist=%a" -T "title=%t" -T "album=%g" -T "date=%y" -T "tracknumber=%n" -T "genre=%m" %s

TOC of the extracted CD

     Track |   Start  |  Length  | Start sector | End sector
    ---------------------------------------------------------
        1  |  0:00.00 |  3:48.56 |         0    |    17155
        2  |  3:48.56 |  3:59.10 |     17156    |    35090
        3  |  7:47.66 |  3:34.06 |     35091    |    51146
        4  | 11:21.72 |  3:41.46 |     51147    |    67767
        5  | 15:03.43 |  4:21.67 |     67768    |    87409
        6  | 19:25.35 |  0:49.51 |     87410    |    91135
        7  | 20:15.11 |  3:01.65 |     91136    |   104775
        8  | 23:17.01 |  2:48.54 |    104776    |   117429
        9  | 26:05.55 |  3:23.05 |    117430    |   132659
       10  | 29:28.60 |  3:05.32 |    132660    |   146566
       11  | 32:34.17 |  3:56.40 |    146567    |   164306
       12  | 36:30.57 |  6:17.07 |    164307    |   192588
       13  | 45:19.64 |  6:02.38 |    203989    |   231176

Track  1

     Filename D:\Adept - Death Dealers (2011) [FLAC]\01. First Round, First Minute.wav

     Pre-gap length  0:00:02.00

     Peak level 99.9 %
     Extraction speed 4.3 X
     Track quality 100.0 %
     Test CRC 4C0CE693
     Copy CRC 4C0CE693
     Track not present in AccurateRip database
     Copy OK

Track  2

     Filename D:\Adept - Death Dealers (2011) [FLAC]\02. The Lost Boys.wav

     Pre-gap length  0:00:00.50

     Peak level 99.9 %
     Extraction speed 4.8 X
     Track quality 100.0 %
     Test CRC F5622E0B
     Copy CRC F5622E0B
     Track not present in AccurateRip database
     Copy OK

Track  3

     Filename D:\Adept - Death Dealers (2011) [FLAC]\03. No Guts, No Glory.wav

     Pre-gap length  0:00:00.62

     Peak level 99.9 %
     Extraction speed 5.2 X
     Track quality 100.0 %
     Test CRC 727C5ACF
     Copy CRC 727C5ACF
     Track not present in AccurateRip database
     Copy OK

Track  4

     Filename D:\Adept - Death Dealers (2011) [FLAC]\04. This Could Be You.wav

     Peak level 99.9 %
     Extraction speed 5.5 X
     Track quality 100.0 %
     Test CRC 8D051011
     Copy CRC 8D051011
     Track not present in AccurateRip database
     Copy OK

Track  5

     Filename D:\Adept - Death Dealers (2011) [FLAC]\05. At Worlds End.wav

     Pre-gap length  0:00:01.73

     Peak level 99.9 %
     Extraction speed 6.1 X
     Track quality 100.0 %
     Test CRC BAA65129
     Copy CRC BAA65129
     Track not present in AccurateRip database
     Copy OK

Track  6

     Filename D:\Adept - Death Dealers (2011) [FLAC]\06. By The Wrath Of Akakabuto.wav

     Peak level 99.9 %
     Extraction speed 3.9 X
     Track quality 100.0 %
     Test CRC 42E7C172
     Copy CRC 42E7C172
     Track not present in AccurateRip database
     Copy OK

Track  7

     Filename D:\Adept - Death Dealers (2011) [FLAC]\07. If I'm A Failure, You're A Tragedy.wav

     Peak level 99.9 %
     Extraction speed 5.9 X
     Track quality 100.0 %
     Test CRC 6A9B6E79
     Copy CRC 6A9B6E79
     Track not present in AccurateRip database
     Copy OK

Track  8

     Filename D:\Adept - Death Dealers (2011) [FLAC]\08. Hope.wav

     Pre-gap length  0:00:00.97

     Peak level 99.9 %
     Extraction speed 6.2 X
     Track quality 100.0 %
     Test CRC EEB1E6B4
     Copy CRC EEB1E6B4
     Track not present in AccurateRip database
     Copy OK

Track  9

     Filename D:\Adept - Death Dealers (2011) [FLAC]\09. Death Dealers.wav

     Pre-gap length  0:00:01.37

     Peak level 99.9 %
     Extraction speed 6.6 X
     Track quality 100.0 %
     Test CRC 868C03C7
     Copy CRC 868C03C7
     Track not present in AccurateRip database
     Copy OK

Track 10

     Filename D:\Adept - Death Dealers (2011) [FLAC]\10. The Ivory Tower.wav

     Peak level 99.9 %
     Extraction speed 6.8 X
     Track quality 100.0 %
     Test CRC 5C18618F
     Copy CRC 5C18618F
     Track not present in AccurateRip database
     Copy OK

Track 11

     Filename D:\Adept - Death Dealers (2011) [FLAC]\11. From The Depths Of Hell.wav

     Pre-gap length  0:00:00.52

     Peak level 99.9 %
     Extraction speed 7.3 X
     Track quality 100.0 %
     Test CRC 869ABE74
     Copy CRC 869ABE74
     Track not present in AccurateRip database
     Copy OK

Track 12

     Filename D:\Adept - Death Dealers (2011) [FLAC]\12. This Ends Tonight.wav

     Pre-gap length  0:00:00.84

     Peak level 99.9 %
     Extraction speed 8.1 X
     Track quality 100.0 %
     Test CRC CE88084D
     Copy CRC CE88084D
     Track not present in AccurateRip database
     Copy OK

None of the tracks are present in the AccurateRip database

No errors occurred

End of status report

==== Log checksum 1F56F4ED8837C6F290E23571C78DC2B46B446CCAAD2086EE8D089F44470657DB ====


Код:
Код:
-----------------------

DON'T MODIFY THIS FILE

-----------------------

PERFORMER: auCDtect Task Manager, ver. 1.5.1RC6 build 1.5.1.7
Copyright (c) 2008-2010 y-soft. All rights reserved
http:/y-soft.org

ANALYZER: auCDtect: CD records authenticity detector, version 0.8.2
Copyright (c) 2004 Oleg Berngardt. All rights reserved.
Copyright (c) 2004 Alexander Djourik. All rights reserved.

FILE: 12. Adept - This Ends Tonight.flac
  Size: 47865353 Hash: 85C72F6B0F498C14BB6D00449415F6BA Accuracy: -m0
  Conclusion: CDDA 100%
  Signature: 888269FFF0C4801067A7525222308E0FBAC7BA28
FILE: 11. Adept - From The Depths Of Hell.flac
  Size: 32016606 Hash: E4587D6FCB62825F532E3610D4B988A1 Accuracy: -m0
  Conclusion: CDDA 100%
  Signature: 46F681CB1A266A34DEACB3D3E34BC1E47B7E9303
FILE: 10. Adept - The Ivory Tower.flac
  Size: 24623322 Hash: BC26D5DCF247AF7F0506A67D707845AB Accuracy: -m0
  Conclusion: CDDA 100%
  Signature: FEAED48E1834579286B4AF0B32D5B1EA53F362B9
FILE: 09. Adept - Death Dealers.flac
  Size: 26192676 Hash: 33804ABD871EF5C409EAFB135529C0C5 Accuracy: -m0
  Conclusion: CDDA 100%
  Signature: F6CEDF297E3AB827519F89B7EF9E923A10C8D617
FILE: 08. Adept - Hope.flac
  Size: 22098523 Hash: C71A3117CCEB077B9A39A0B5123FFCBB Accuracy: -m0
  Conclusion: CDDA 100%
  Signature: F9AEAC20C348C6E4E1068DB024854BF0A1CD231F
FILE: 07. Adept - If I'm A Failure, You're A Tragedy.flac
  Size: 24466535 Hash: 28178DA3D26881F0B5487D8194981F50 Accuracy: -m0
  Conclusion: CDDA 100%
  Signature: 5166690FF796B2A4B2378B16E2FD1543B8E35CC5
FILE: 06. Adept - By The Wrath Of Akakabuto.flac
  Size: 6180514 Hash: 9BFD32131FFD535DE77A3B491360C695 Accuracy: -m0
  Conclusion: CDDA 100%
  Signature: 026829B2798C8B7228D2455882B4205F85478719
FILE: 05. Adept - At Worlds End.flac
  Size: 33726172 Hash: 9C1F40966CE5ACFF5DB617BB68B2750C Accuracy: -m0
  Conclusion: CDDA 100%
  Signature: F2ABC834709CCF2B61302547E619F48475A18379
FILE: 04. Adept - This Could Be You.flac
  Size: 28660010 Hash: C375C8C84DFD127FB3B0B6E4C29A9928 Accuracy: -m0
  Conclusion: CDDA 100%
  Signature: B2FFCA0D0EDCC5068E94CE044CE52EE5F1C58FCD
FILE: 03. Adept - No Guts, No Glory.flac
  Size: 28692821 Hash: 69795D84856E3D79CAD258515CD1C7D2 Accuracy: -m0
  Conclusion: CDDA 100%
  Signature: 45757A4E7DE7C58D91A4CF741848E5661338E2E4
FILE: 02. Adept - The Lost Boys.flac
  Size: 31724654 Hash: 425142519FE05F8930792040E5B43826 Accuracy: -m0
  Conclusion: CDDA 100%
  Signature: B114B746A5236404E19D2DD2E39CAD8BFCDB2E2E
FILE: 01. Adept - First Round, First Minute.flac
  Size: 30865387 Hash: B318E3A140E53E13B4A7A14CBB6ED483 Accuracy: -m0
  Conclusion: CDDA 100%
  Signature: 5C603BAC582F800CE8711B7E2044626911728AEB


#777Треклист:

01. Forever And A Day
02. Established 2004
03. Secrets
04. The Ocean Grave
05. Dead Planet
06. Orion
07. Means To An End (The Greatest Betrayer)
08. Friends That Used To Be
09. Heart Vs. Beats
10. The Toughest Kids
11. Aftermath

Продолжительность: 00:39:56


Код:
Код:
-----------------------

DON'T MODIFY THIS FILE

-----------------------

PERFORMER: auCDtect Task Manager, ver. 1.5.1RC6 build 1.5.1.7
Copyright (c) 2008-2010 y-soft. All rights reserved
http:/y-soft.org

ANALYZER: auCDtect: CD records authenticity detector, version 0.8.2
Copyright (c) 2004 Oleg Berngardt. All rights reserved.
Copyright (c) 2004 Alexander Djourik. All rights reserved.

FILE: 11. Adept - Aftermath.flac
  Size: 31787392 Hash: 7133CD1480ABE748FDCCA21D3935C097 Accuracy: -m0
  Conclusion: CDDA 100%
  Signature: 7CF800FFCAD1961EF403F51B70AA1A52F9E06982
FILE: 10. Adept - The Toughest Kids.flac
  Size: 29785615 Hash: 56A53DA78E9E17C5B01CCA741F5958F8 Accuracy: -m0
  Conclusion: CDDA 100%
  Signature: 6D993FF21F73249506A151C494559C81C19B3C5A
FILE: 09. Adept - Heart Vs. Beats.flac
  Size: 28393659 Hash: C0E11AC50FE6F96DAFB830C3EC7C10FA Accuracy: -m0
  Conclusion: CDDA 100%
  Signature: C7B529244C186AF33DCD05B60E94922DABBA9E85
FILE: 08. Adept - Friends That Used To Be.flac
  Size: 28504470 Hash: BCB5B4F20E99D0BCCDE72B96DB3C3A00 Accuracy: -m0
  Conclusion: CDDA 100%
  Signature: 5C6EC426F1D12BE4191ED0B9730FCFD3E4A6948D
FILE: 07. Adept - Means To An End (The Greatest Betrayer).flac
  Size: 32893346 Hash: 8B539B166090084D7D5931867148EB57 Accuracy: -m0
  Conclusion: CDDA 100%
  Signature: 4644333FCFC1900275C973595631EADD36447623
FILE: 06. Adept - Orion.flac
  Size: 10997107 Hash: 1F766CF8CEBB31A381847A435A8067E1 Accuracy: -m0
  Conclusion: CDDA 100%
  Signature: 7ADE4E0E2F90B1A8CF207E6DF48F8CC3BD53AD96
FILE: 05. Adept - Dead Planet.flac
  Size: 32967626 Hash: A926407920F726FACDF4A27FCAE187DF Accuracy: -m0
  Conclusion: CDDA 100%
  Signature: 6A5081AFA0AABA86A50FD7150C49A4C52BB5CC0E
FILE: 04. Adept - The Ocean Grave.flac
  Size: 32103292 Hash: 3A232B370BA8143F39DDB1F1BF4877CC Accuracy: -m0
  Conclusion: CDDA 100%
  Signature: C55DE304D2CA42A673C9CA0BE28512428ED28CA7
FILE: 03. Adept - Secrets.flac
  Size: 33388586 Hash: 343E09796CBBC4D5774EDF439DCE5052 Accuracy: -m0
  Conclusion: CDDA 100%
  Signature: 8BF8B1EA56EC06C4D7A528E43FFA46C33003DD78
FILE: 02. Adept - Established 2004.flac
  Size: 29187756 Hash: 3FE6EB9CA9A40F38283D6199E2AA2E10 Accuracy: -m0
  Conclusion: CDDA 100%
  Signature: 4C8FB7A0F1F7C776CAA3090BFE835AEB2D8794EC
FILE: 01. Adept - Forever And A Day.flac
  Size: 34056708 Hash: 0C6EA2B10603966950B39E8E1426C57C Accuracy: -m0
  Conclusion: CDDA 99%
  Signature: 2A6DDDB35C7CC456C256F840CF43F8A01BC8FB11




Тип рипа: Tracks+.cue
Аудиокодек: FLAC
Битрейт аудио: lossless
Правила, инструкции, FAQ!!!
Торрент  Добавлен [16 мар 2014, 00:49] Скачать торрент Магнет ссылка
Скачать торрент
[ Размер 24.25 КБ / Просмотров 160 ]

Статус  
 
Размер  996.43 МБ
Приватный: Нет (DHT включён)
.torrent скачан  0
 


     Отправить личное сообщение
   
Страница 1 из 1
Показать сообщения за:  Поле сортировки  
Начать новую тему Ответить на тему


Сейчас этот форум просматривают: нет зарегистрированных пользователей и гости: 0


Вы не можете начинать темы
Вы не можете отвечать на сообщения
Вы не можете редактировать свои сообщения
Вы не можете удалять свои сообщения
Вы не можете добавлять вложения

Перейти:  
cron
cron