Начать новую тему Ответить на тему
Статистика раздачи
Размер: 1.06 ГБ | Добавлен: 24 авг 2016, 12:33 | Скачали: 3
Сидеров: 13  [0 байт/сек]    Личеров: 3  [0 байт/сек]
Пред. тема | След. тема 

Автор
Сообщение

СообщениеДобавлено: 24 авг 2016, 12:33 

Ответить с цитатой 

Shakti With John McLaughlin
Жанр: Acoustic,Fusion
Год выпуска: 1976
Лейбл: Columbia-34162
Страна-производитель: USA
Аудио кодек: FLAC
Тип рипа: tracks+.cue
Формат записи: 24/96
Формат раздачи: 24/96
Источник оцифровки: третьим лицом
Код класса состояния винила: Ex
Продолжительность: 52.26 min
Side 1
1. Joy (18:13)
2. Lotus Feet (4:44)
Side 2
3. What Need Have I for This – What Need Have I for That – I Am Dancing at the Feet of My Lord – All Is Bliss – All Is Bliss (29:03)

foobar2000 1.1.10 / Dynamic Range Meter 1.1.1
log date: 2013-01-06 10:53:23

--------------------------------------------------------------------------------
Analyzed: Shakti / Shakti With John McLaughlin (LP)
--------------------------------------------------------------------------------

DR Peak RMS Duration Track
--------------------------------------------------------------------------------
DR14 -1.18 dB -18.56 dB 18:18 ?-LADO 1- Joy
DR15 -6.94 dB -27.34 dB 4:54 ?-Lotus Feet
DR14 -2.24 dB -20.19 dB 29:14 ?-LADO 2- What Need Have I For This - What Need Have I For That - I Am Dancing At The Feet Of My Lord - All Is Bliss - All Is Bliss
--------------------------------------------------------------------------------

Number of tracks: 3
Official DR value: DR15

Samplerate: 96000 Hz
Channels: 2
Bits per sample: 24
Bitrate: 2855 kbps
Codec: FLAC
==================================================================
Vinyl rip, mastered and audio correction: Fran Solo
Direct Drive Turntable: Marantz 6170
Cartridge: SHURE M97xE (audiophile)
Edition: Adobe Audition CS 5.5 – xACT & XLD (lossless)
Redbook Conversion: Izotope RX Advanced
DeClick-Izotope RX Advanced: Yes
Password?: Without Password
Scans Full & Corrected LP Cover, 1:1 (All included in 300dpi: front/back – gatefold outside/inside – booklet – insert – envelope – labels, etc.)
Правила, инструкции, FAQ!!!
Торрент  Добавлен [24 авг 2016, 12:33] Скачать торрент Магнет ссылка
Скачать торрент
[ Размер 11.93 КБ / Просмотров 22 ]

Статус
Проверен 
 
Размер  1.06 ГБ
Приватный: Нет (DHT включён)
.torrent скачан  3
 


     Отправить личное сообщение
   
Страница 1 из 1
Показать сообщения за:  Поле сортировки  
Начать новую тему Ответить на тему


Сейчас этот форум просматривают: нет зарегистрированных пользователей и гости: 0


Вы не можете начинать темы
Вы не можете отвечать на сообщения
Вы не можете редактировать свои сообщения
Вы не можете удалять свои сообщения
Вы не можете добавлять вложения

Перейти:  
cron
cron