Начать новую тему Ответить на тему
Статистика раздачи
Размер: 473.56 МБ | Добавлен: 16 мар 2014, 00:19 | Скачали: 0
Сидеров: 1  [0 байт/сек]    Личеров: 1  [0 байт/сек]
Пред. тема | След. тема 

Автор
Сообщение

СообщениеДобавлено: 16 мар 2014, 00:19 

Ответить с цитатой 

Abstract Truth - 2 Альбома (Discography) (1970) /Reissue 2009/

Жанр: Psychedelic / Progressive Rock
Страна: South Africa
Страна-производитель диска: Germany
Год: 1970 /2009 Reissue/
Label: Shadoks Music
Аудиокодек: FLAC (*.flac)
Тип рипа: image+.cue
Битрейт аудио: lossless
Продолжительность: 01:27:49
Источник (релизер): Handsome Devil
Наличие сканов: нет
    Personnel:
    Ken E. Henson - Guitar, Sitar, Vocals
    Peter Measroch - Piano, Organ, Flute, Harpsichord
    George Wolfaardt - Bass, Flute, Drums, Vocals
    Sean Bergin - Flute, Saxophone
    Brian Gibson - Bass, Vocals
    Robbie Pavid - Percussion


Группа «Abstract Truth» из Дурбана (Южно-Африканская республика) ворвалась на музыкальную сцену в начале 1969 года. Конечно же, Дурбан вряд ли можно назвать общепризнанным центром африканского психоделического фолка, но это один из самых крупных портовых городов на черном континенте (как не вспомнить в этой связи и всемирно известный Ливерпуль) творчески подпитываемый множеством влияний витающих в воздухе в виде виниловых пластинок импортированных из Штатов и из Англии. Коллектив «Abstract Truth» выпустил два альбома в 1970-м (и еще один сборник под названием «Cool Sounds For Heads» в том же году) и после многочисленных перемен в составе распался в 1971 году.
Группа была создана Кеном Хенсоном (Ken Henson), одним из соучредителей очень популярного в Южной Африке коллектива «Freedom’s Children». До этого, его можно было увидеть в роли гитариста в составе группы «Leeman Ltd», образованной в Дурбане в 1965 году. В 1966-м Хенсон и загадочной Рамсей МакКэй (Ramsay MacKay) объединились с бывшими участниками «Navarones» Колином Прэтли (Colin Pratley) и Ником Мартенсом (Nic Martens) для того чтобы создать «Freedom's Children», возможно, самую величайшую рок-группу в истории Южной Африки.

Клайв Колдер, пописавший контракт с «EMI» для «Abstract Truth» в 1970 году, заявил что «Freedom’s Children», по его мнению "была тогда, и, вероятно, еще и сегодня, единственной рок-командой из ЮАР, которая при определенных условиях и при правильном географическом положении, могла бы стать международно-успешной рок-группой, просто, будучи самой собой и делая то, что она делала».

После окончательного ухода Хенсона из «Детей Свободы» в феврале 1969 года владелец местной гостиницы, услышав, что Хенсон играет на ситаре, попросил его собрать состав, играющий что-нибудь в восточно-экзотическом стиле для аккомпанемента танцовщицам исполняющим «танец живота» в диско-баре отеля. Бар назывался «Totum» и это обстоятельство позже найдет свое отражение в названии дебютного альбома «Abstract Truth». К Хенсону, который играл на гитаре и ситаре, примкнул, экс-басист «004’s» Брайен Гибсон (Brian Gibson), бывший участник джаз-группы «The Sounds» - флейтист и саксофонист в одном лице Шон Бергин (Sean Bergin) и Робби Пэвид (Robbie Pavid) из «The Third Eye» на ударных. Чтобы заполнить музыкальное пространство вечера, они начали играть довольно странный гибрид из джазовых стандартов, фолка, рока и стилизованных под Восток звуковых фрагментов и импровизаций. Вскоре «Абстрактная Истина» станет главной достопримечательностью бара «Totum» и «танцы живота» больше не потребуются для привлечения дополнительной публики. Музыкальная пресса Южной Африки тех лет отмечала: «Они абсолютно не похожи ни на одну группу в окрестностях Дурбана. Это видимо самая продвинутая команда в стране. Их музыка прогрессивная, экзотичная и не коммерческая». Она представляла собой музыку свободной формы – превосходный и загадочный сплав блюза, фолка, джаза и восточной музыки. В их творчестве был какой-то неуловимый британский колорит: мягкий, мечтательный, порой слегка опьяняющий психоделический звук, характерный скорее для «Traffic» или ранних эпических баллад «King Crimson», нежели для группы из Южной Африки.

Альбом «Totum» был записан на 4-дорожечный магнитофон в Йоханнесбурге в течение одного уикэнда и выпущен в начале 1970 года. "По сегодняшним меркам это довольно «шершавая» запись" - говорит Хенсон ", но я считаю, что это была честная интерпретация того, что мы делали". Реестр трэков пластинки состоит практически из одних кавер-версий - Донован, Дилан, Гершвин и другие известные авторы, произведения которых были препарированны по особой методике «Abstract Truth». И лишь финальная, «кислотно-насыщенная» композиция «Totum/Acid Raga», с блуждающей по краю Вселенной импровизацией на ситаре, сопровождаемой мягким вихрем диковинных атмосферных звуковых прикосновений, принадлежит перу самих музыкантов группы. В одном из музыкальных обзоров того времени о дебютном альбоме «Abstract Truth» было сказано следующее: "Шон, Брайан, Робби и Кен подняли южноафриканской поп от приторного пафоса «баббл-гама» до высот поп-прогрессива. Это уже великое достижение!"

А вот, как в наши дни Интернет-магазин «Freak Emporium» на своем вэб-сайте оценивает стартовую работу «Абстрактной Истины»: "Превосходный, задумчивый рок начала 70-х с причудливой мелодикой, вперемешку с африканским звуковым колоритом. Впечатляющее разнообразие инструментов: клавишные, флейта, электрическая гитара, саксофон, перкуссия и т.д. Весьма свежий подход».

Еще одной интересной особенностью альбома является его «вневременная» и «внепространственная» вселенская атмосфера, позволяющая слушателю ощущать себя одновременно в разных местах и в разных эпохах. Это восхитительный соматический напиток для отважных путешественников к отдаленным уголкам своего внутреннего мира, состоящий из волшебных ингредиентов: психоделии, рока, джаза, классики, блюза, фанка и джайва. А духовым инструментам здесь отводится особая роль – быть умудренными проводниками и мудрыми посредниками в этом чрезвычайно тяжелом и порой опасном путешествии между внутренним и внешним параллельными пространствами.

Их следующий альбом «Silver Trees» («Серебряные деревья») был попыткой записать более структурированные песни, чтобы музыка группы стала более доступной для покупающей пластинки публики. В отличие от «Totum» вся музыка на этой пластинке была написана членами группы. Она была более отточенной, более изящной, нежели их виниловый первенец. Стремление к компромиссу, как ни странно, помогло группе создать шедевральный, вне всякого сомнения, альбом, заслуживающий пристального внимания даже самой искушенной публики. Впрочем, тогда это так и не принесло группе достойных уважения моральных и финансовых дивидендов. Это просто не сработало. А жаль. (найдено в сети)

#777
Totum
Catalog#: 111
Продолжительность - 00:52:03
Трек лист:
01. Jersey Thursday (3:50)
02. Coming Home Baby (6:34)
03. Oxford Town (4:11)
04. Fat Angel / Work Song (10:04)
05. Summertime (5:18)
06. Scarborough Fair (3:46)
07. Parchman Farm / Moaning (3:00)
08. Ain't Necessarily So / Take Five (10:03)
09. Total Totum (Acid Raga) (5:18)
Код:
Код:
Exact Audio Copy V1.0 beta 1 from 15. November 2010

EAC extraction logfile from 27. August 2011, 21:11

Abstract Truth  / Totum (Shadoks Music 111)

Used drive  : Optiarc DVD RW AD-7170A   Adapter: 3  ID: 1

Read mode               : Secure
Utilize accurate stream : Yes
Defeat audio cache      : Yes
Make use of C2 pointers : No

Read offset correction                      : 48
Overread into Lead-In and Lead-Out          : No
Fill up missing offset samples with silence : Yes
Delete leading and trailing silent blocks   : No
Null samples used in CRC calculations       : Yes
Used interface                              : Native Win32 interface for Win NT & 2000

Used output format              : User Defined Encoder
Selected bitrate                : 1024 kBit/s
Quality                         : High
Add ID3 tag                     : Yes
Command line compressor         : C:\Program Files\Exact Audio Copy\CODEC's\flac\flac.exe
Additional command line options : --best -T "artist=%a" -T "title=%t" -T "album=%g" -T "date=%y" -T "tracknumber=%n" -T "genre=%m" %s

TOC of the extracted CD

     Track |   Start  |  Length  | Start sector | End sector
    ---------------------------------------------------------
        1  |  0:00.00 |  3:49.66 |         0    |    17240
        2  |  3:49.66 |  6:34.27 |     17241    |    46817
        3  | 10:24.18 |  4:10.57 |     46818    |    65624
        4  | 14:35.00 | 10:04.04 |     65625    |   110928
        5  | 24:39.04 |  5:17.49 |    110929    |   134752
        6  | 29:56.53 |  3:46.07 |    134753    |   151709
        7  | 33:42.60 |  2:59.50 |    151710    |   165184
        8  | 36:42.35 | 10:02.49 |    165185    |   210383
        9  | 46:45.09 |  5:18.01 |    210384    |   234234

Range status and errors

Selected range

     Filename H:\Abstract Truth - Totum (Shadoks Music 111).wav

     Peak level 97.7 %
     Extraction speed 0.6 X
     Range quality 99.9 %
     Test CRC 47D01976
     Copy CRC 47D01976
     Copy OK

No errors occurred

AccurateRip summary

Track  1  not present in database
Track  2  not present in database
Track  3  not present in database
Track  4  not present in database
Track  5  not present in database
Track  6  not present in database
Track  7  not present in database
Track  8  not present in database
Track  9  not present in database

None of the tracks are present in the AccurateRip database

End of status report
Код:
Код:
-----------------------

DON'T MODIFY THIS FILE

-----------------------

PERFORMER: auCDtect Task Manager, ver. 1.6.0 RC1 build 1.6.0.1
Copyright (c) 2008-2010 y-soft. All rights reserved
http:/y-soft.org

ANALYZER: auCDtect: CD records authenticity detector, version 0.8.2
Copyright (c) 2004 Oleg Berngardt. All rights reserved.
Copyright (c) 2004 Alexander Djourik. All rights reserved.

FILE: Abstract Truth - Totum (Shadoks Music 111).flac
  Size: 291447590 Hash: 3FE1335060189BCE3879270164ECFAF4 Accuracy: -m0
  Conclusion: CDDA 100%
  Signature: 237075F2A0395A901604EAEA779EB5FDDF85CB63
#777
Silver Trees
Catalog#: 112
Продолжительность - 00:35:46
Трек лист:
01. Pollution (3:14)
02. All The Same (3:19)
03. Original Man (3:38)
04. Silver Trees (8:22)
05. In A Space (3:55)
06. Moving Away (3:01)
07. Two (2:53)
08. Blue Wednesday Speaks (4:15)
09. It's Alright With Me (3:09)
Код:
Код:
Exact Audio Copy V1.0 beta 1 from 15. November 2010

EAC extraction logfile from 27. August 2011, 21:33

Abstract Truth / Silver Trees (Shadoks Music 112)

Used drive  : Optiarc DVD RW AD-7170A   Adapter: 3  ID: 1

Read mode               : Secure
Utilize accurate stream : Yes
Defeat audio cache      : Yes
Make use of C2 pointers : No

Read offset correction                      : 48
Overread into Lead-In and Lead-Out          : No
Fill up missing offset samples with silence : Yes
Delete leading and trailing silent blocks   : No
Null samples used in CRC calculations       : Yes
Used interface                              : Native Win32 interface for Win NT & 2000

Used output format              : User Defined Encoder
Selected bitrate                : 1024 kBit/s
Quality                         : High
Add ID3 tag                     : Yes
Command line compressor         : C:\Program Files\Exact Audio Copy\CODEC's\flac\flac.exe
Additional command line options : --best -T "artist=%a" -T "title=%t" -T "album=%g" -T "date=%y" -T "tracknumber=%n" -T "genre=%m" %s

TOC of the extracted CD

     Track |   Start  |  Length  | Start sector | End sector
    ---------------------------------------------------------
        1  |  0:00.00 |  3:14.16 |         0    |    14565
        2  |  3:14.16 |  3:18.71 |     14566    |    29486
        3  |  6:33.12 |  3:37.69 |     29487    |    45830
        4  | 10:11.06 |  8:21.47 |     45831    |    83452
        5  | 18:32.53 |  3:55.34 |     83453    |   101111
        6  | 22:28.12 |  3:00.55 |    101112    |   114666
        7  | 25:28.67 |  2:53.16 |    114667    |   127657
        8  | 28:22.08 |  4:14.71 |    127658    |   146778
        9  | 32:37.04 |  3:09.15 |    146779    |   160968

Range status and errors

Selected range

     Filename H:\Abstract Truth - Silver Trees (Shadoks Music 112).wav

     Peak level 97.7 %
     Extraction speed 0.3 X
     Range quality 99.9 %
     Test CRC CBD4D999
     Copy CRC CBD4D999
     Copy OK

No errors occurred

AccurateRip summary

Track  1  not present in database
Track  2  not present in database
Track  3  not present in database
Track  4  not present in database
Track  5  not present in database
Track  6  not present in database
Track  7  not present in database
Track  8  not present in database
Track  9  not present in database

None of the tracks are present in the AccurateRip database

End of status report
Код:
Код:
-----------------------

DON'T MODIFY THIS FILE

-----------------------

PERFORMER: auCDtect Task Manager, ver. 1.6.0 RC1 build 1.6.0.1
Copyright (c) 2008-2010 y-soft. All rights reserved
http:/y-soft.org

ANALYZER: auCDtect: CD records authenticity detector, version 0.8.2
Copyright (c) 2004 Oleg Berngardt. All rights reserved.
Copyright (c) 2004 Alexander Djourik. All rights reserved.

FILE: Abstract Truth - Silver Trees (Shadoks Music 112).flac
  Size: 204989480 Hash: F7BCA9BD1161EF42CFA1734488892F9D Accuracy: -m0
  Conclusion: CDDA 100%
  Signature: AB8CB4C17DE2DC65B4CE454428EEE469687E908A
Правила, инструкции, FAQ!!!
Торрент  Добавлен [16 мар 2014, 00:19] Скачать торрент Магнет ссылка
Скачать торрент
[ Размер 20.2 КБ / Просмотров 23 ]

Статус  
 
Размер  473.56 МБ
Приватный: Нет (DHT включён)
.torrent скачан  0
 


     Отправить личное сообщение
   
Страница 1 из 1
Показать сообщения за:  Поле сортировки  
Начать новую тему Ответить на тему


Сейчас этот форум просматривают: нет зарегистрированных пользователей и гости: 0


Вы не можете начинать темы
Вы не можете отвечать на сообщения
Вы не можете редактировать свои сообщения
Вы не можете удалять свои сообщения
Вы не можете добавлять вложения

Перейти:  
cron