Начать новую тему Ответить на тему
Статистика раздачи
Размер: 1.64 ГБ | Добавлен: 16 мар 2014, 00:53 | Скачали: 1
Сидеров: 1  [0 байт/сек]    Личеров: 0  [0 байт/сек]
Пред. тема | След. тема 

Автор
Сообщение

СообщениеДобавлено: 16 мар 2014, 00:53 

Ответить с цитатой 


A Skylit Drive
- Дискография





Год выпуска: 2007-2013
Жанр: Post-Hardcore
Продолжительность: 03:22:17
Тип издания: Дискография
Страна: США



Треклист:

01. Ability To Create A War
02. Drown The City
03. The All Star Diaries
04. Hey Nightmare, Where Did You Get Them Teeth?
05. The Past, The Love, The Memory
06. A Reason For Broken Wings
07. According To Columbus

Продолжительность: 00:27:03

Код:
Код:
EAC extraction logfile from 23. August 2007, 14:58 for CD
A Skylit Drive / She Watched The Sky...

Used drive  : _NEC    DVD+-RW ND-6650A   Adapter: 0  ID: 1
Read mode   : Secure with NO C2, accurate stream, disable cache
Read offset correction : 48
Overread into Lead-In and Lead-Out : No

Used output format : C:\Dokumente und Einstellungen\freund.kai\Eigene Dateien\-downloads-\-files-\KAI\flac-1.1.4-win\flac-1.1.4-win\bin\flac.exe   (User Defined Encoder)
                     192 kBit/s
                     Additional command line options : -8 -A tukey(0.25) -A gauss(0.1875) -b 4096 -V -T "artist=%a" -T "title=%t" -T "album=%g" -T "date=%y" -T "tracknumber=%n" -T "genre=%m" %s --sector-align

Other options      :
    Fill up missing offset samples with silence : Yes
    Delete leading and trailing silent blocks : No
    Installed external ASPI interface

Track  1
     Filename G:\-downloads-\-flac-\A Skylit Drive - She Watched The Sky\01 - A Skylit Drive - Ability To Create A War.wav

     Pre-gap length  0:00:02.00

     Peak level 100.0 %
     Track quality 100.0 %
     Test CRC 880415D1
     Copy CRC 880415D1
     Copy OK

Track  2
     Filename G:\-downloads-\-flac-\A Skylit Drive - She Watched The Sky\02 - A Skylit Drive - Drown The City.wav

     Pre-gap length  0:00:02.00

     Peak level 100.0 %
     Track quality 99.9 %
     Test CRC 77621B45
     Copy CRC 77621B45
     Copy OK

Track  3
     Filename G:\-downloads-\-flac-\A Skylit Drive - She Watched The Sky\03 - A Skylit Drive - The All Star Diaries.wav

     Pre-gap length  0:00:02.00

     Peak level 100.0 %
     Track quality 100.0 %
     Test CRC 96487720
     Copy CRC 96487720
     Copy OK

Track  4
     Filename G:\-downloads-\-flac-\A Skylit Drive - She Watched The Sky\04 - A Skylit Drive - Hey Nightmare, Where Did You Get Them Teeth .wav

     Pre-gap length  0:00:02.00

     Peak level 100.0 %
     Track quality 100.0 %
     Test CRC 3BDD6BC5
     Copy CRC 3BDD6BC5
     Copy OK

Track  5
     Filename G:\-downloads-\-flac-\A Skylit Drive - She Watched The Sky\05 - A Skylit Drive - The Past, The Love, The Memory.wav

     Pre-gap length  0:00:02.00

     Peak level 100.0 %
     Track quality 99.9 %
     Test CRC E9DC82ED
     Copy CRC E9DC82ED
     Copy OK

Track  6
     Filename G:\-downloads-\-flac-\A Skylit Drive - She Watched The Sky\06 - A Skylit Drive - A Reason For Broken Wings.wav

     Pre-gap length  0:00:02.00

     Peak level 100.0 %
     Track quality 100.0 %
     Test CRC 0109EB5B
     Copy CRC 0109EB5B
     Copy OK

Track  7
     Filename G:\-downloads-\-flac-\A Skylit Drive - She Watched The Sky\07 - A Skylit Drive - According To Columbus.wav

     Pre-gap length  0:00:02.00

     Peak level 100.0 %
     Track quality 100.0 %
     Test CRC B3C302B2
     Copy CRC B3C302B2
     Copy OK

No errors occured

End of status report

Код:
Код:
-----------------------

DON'T MODIFY THIS FILE

-----------------------

PERFORMER: auCDtect Task Manager, ver. 1.5.1RC6 build 1.5.1.7
Copyright (c) 2008-2010 y-soft. All rights reserved
http:/y-soft.org

ANALYZER: auCDtect: CD records authenticity detector, version 0.8.2
Copyright (c) 2004 Oleg Berngardt. All rights reserved.
Copyright (c) 2004 Alexander Djourik. All rights reserved.

FILE: 07. A Skylit Drive - According To Columbus.flac
  Size: 35251339 Hash: 7C0F1BAF1C70C23A43A9053ABF860DA7 Accuracy: -m0
  Conclusion: CDDA 100%
  Signature: 7D7FEA4BD923E8F6FB159C3C19EB47C052A5FAD2
FILE: 06. A Skylit Drive - A Reason For Broken Wings.flac
  Size: 34964678 Hash: 508CFD72C23248FA4DBAE9FC04B57B33 Accuracy: -m0
  Conclusion: CDDA 100%
  Signature: EDD1D6BBED2921D50A0B35CFDF79B101F3AB4B87
FILE: 05. A Skylit Drive - The Past, The Love, The Memory.flac
  Size: 17363629 Hash: C87814B0F915C5995A242CA830E116B5 Accuracy: -m0
  Conclusion: CDDA 100%
  Signature: 0459440B294712FC039B55F402234E076317C293
FILE: 04. A Skylit Drive - Hey Nightmare, Where Did You Get Them Teeth_.flac
  Size: 35973001 Hash: E42364FAFC50BE6B45A6690BF244E6A7 Accuracy: -m0
  Conclusion: CDDA 100%
  Signature: DC0F0B8D1E8F880B57F89553FD1E32DB373AB84E
FILE: 03. A Skylit Drive - The All Star Diaries.flac
  Size: 33176919 Hash: A5B052F561F8DD5E804054A9678D98E0 Accuracy: -m0
  Conclusion: CDDA 100%
  Signature: C9A119A7B7AD2897D999C85DF5EA0C4179D1FC48
FILE: 02. A Skylit Drive - Drown The City.flac
  Size: 36370090 Hash: 4F1F52344981BC4080A6BECC67D00F21 Accuracy: -m0
  Conclusion: CDDA 100%
  Signature: 6DC986D318CAEDB37F2A7F654C735960A151F85A
FILE: 01. A Skylit Drive - Ability To Create A War.flac
  Size: 10510182 Hash: 96FCEF5A1821FE3AD7352960708E6CBE Accuracy: -m0
  Conclusion: CDDA 100%
  Signature: F4587190A0C51C38E41258EC79485AFD6632BAD7


#777Треклист:

01. In the Beginning, There Was Void
02. Knights of the Round
03. Wires (and the Concept of Breathing)
04. City On the Edge of Forever
05. Eris and Dysnomia
06. I'm Not a Theif, I'm a Treasure Hunter
07. My Disease
08. This Isn't the End
09. Sleepwalker
10. Pursuit Lets Wisdom Ride the Wind
11. Ex-Machina
12. Balance
13. All it Takes for Your Dreams to Come True

Продолжительность: 00:36:23


Код:
Код:
Exact Audio Copy V0.99 prebeta 3 from 28. July 2007

EAC extraction logfile from 24. May 2008, 12:22

A Skylit Drive / Wires and the Concept of Breathing

Used drive  : HL-DT-STDVDRAM GSA-4084N   Adapter: 0  ID: 0

Read mode               : Secure
Utilize accurate stream : Yes
Defeat audio cache      : Yes
Make use of C2 pointers : No

Read offset correction                      : 667
Overread into Lead-In and Lead-Out          : No
Fill up missing offset samples with silence : Yes
Delete leading and trailing silent blocks   : No
Null samples used in CRC calculations       : Yes
Used interface                              : Native Win32 interface for Win NT & 2000
Gap handling                                : Appended to previous track

Used output format : Internal WAV Routines
Sample format      : 44.100 Hz; 16 Bit; Stereo

TOC of the extracted CD

     Track |   Start  |  Length  | Start sector | End sector
    ---------------------------------------------------------
        1  |  0:00.00 |  1:09.55 |         0    |     5229
        2  |  1:09.55 |  2:48.63 |      5230    |    17892
        3  |  3:58.43 |  2:30.46 |     17893    |    29188
        4  |  6:29.14 |  3:26.14 |     29189    |    44652
        5  |  9:55.28 |  2:08.11 |     44653    |    54263
        6  | 12:03.39 |  3:18.53 |     54264    |    69166
        7  | 15:22.17 |  3:09.03 |     69167    |    83344
        8  | 18:31.20 |  2:54.27 |     83345    |    96421
        9  | 21:25.47 |  1:23.45 |     96422    |   102691
       10  | 22:49.17 |  3:20.66 |    102692    |   117757
       11  | 26:10.08 |  3:03.11 |    117758    |   131493
       12  | 29:13.19 |  3:54.63 |    131494    |   149106
       13  | 33:08.07 |  3:14.69 |    149107    |   163725

Track  1

     Filename C:\Temp\A Skylit Drive - Wires and the Concept of Breathing (2008)\01. In the Beginning, There Was Void.wav

     Pre-gap length  0:00:02.00

     Peak level 100.0 %
     Track quality 99.8 %
     Test CRC 53E37DC6
     Copy CRC 53E37DC6
     Track not present in AccurateRip database
     Copy OK

Track  2

     Filename C:\Temp\A Skylit Drive - Wires and the Concept of Breathing (2008)\02. Knights of the Round.wav

     Peak level 100.0 %
     Track quality 100.0 %
     Test CRC 1A91158C
     Copy CRC 1A91158C
     Track not present in AccurateRip database
     Copy OK

Track  3

     Filename C:\Temp\A Skylit Drive - Wires and the Concept of Breathing (2008)\03. Wires (and the Concept of Breathing).wav

     Peak level 100.0 %
     Track quality 100.0 %
     Test CRC 36A87628
     Copy CRC 36A87628
     Track not present in AccurateRip database
     Copy OK

Track  4

     Filename C:\Temp\A Skylit Drive - Wires and the Concept of Breathing (2008)\04. City On the Edge of Forever.wav

     Peak level 100.0 %
     Track quality 99.9 %
     Test CRC CD6111DA
     Copy CRC CD6111DA
     Track not present in AccurateRip database
     Copy OK

Track  5

     Filename C:\Temp\A Skylit Drive - Wires and the Concept of Breathing (2008)\05. Eris and Dysnomia.wav

     Peak level 100.0 %
     Track quality 99.9 %
     Test CRC DE4CFF96
     Copy CRC DE4CFF96
     Track not present in AccurateRip database
     Copy OK

Track  6

     Filename C:\Temp\A Skylit Drive - Wires and the Concept of Breathing (2008)\06. I'm Not a Theif, I'm a Treasure Hunter.wav

     Peak level 100.0 %
     Track quality 100.0 %
     Test CRC E8158C12
     Copy CRC E8158C12
     Track not present in AccurateRip database
     Copy OK

Track  7

     Filename C:\Temp\A Skylit Drive - Wires and the Concept of Breathing (2008)\07. My Disease.wav

     Peak level 100.0 %
     Track quality 100.0 %
     Test CRC 44C9F645
     Copy CRC 44C9F645
     Track not present in AccurateRip database
     Copy OK

Track  8

     Filename C:\Temp\A Skylit Drive - Wires and the Concept of Breathing (2008)\08. This Isn't the End.wav

     Peak level 100.0 %
     Track quality 100.0 %
     Test CRC 1DAC9A23
     Copy CRC 1DAC9A23
     Track not present in AccurateRip database
     Copy OK

Track  9

     Filename C:\Temp\A Skylit Drive - Wires and the Concept of Breathing (2008)\09. Sleepwalker.wav

     Peak level 100.0 %
     Track quality 100.0 %
     Test CRC 3A548DF8
     Copy CRC 3A548DF8
     Track not present in AccurateRip database
     Copy OK

Track 10

     Filename C:\Temp\A Skylit Drive - Wires and the Concept of Breathing (2008)\10. Pursuit Lets Wisdom Ride the Wind.wav

     Peak level 100.0 %
     Track quality 99.9 %
     Test CRC 965BEB48
     Copy CRC 965BEB48
     Track not present in AccurateRip database
     Copy OK

Track 11

     Filename C:\Temp\A Skylit Drive - Wires and the Concept of Breathing (2008)\11. Ex-Machina.wav

     Peak level 100.0 %
     Track quality 100.0 %
     Test CRC A9CF2BB1
     Copy CRC A9CF2BB1
     Track not present in AccurateRip database
     Copy OK

Track 12

     Filename C:\Temp\A Skylit Drive - Wires and the Concept of Breathing (2008)\12. Balance.wav

     Peak level 100.0 %
     Track quality 100.0 %
     Test CRC 0DA12083
     Copy CRC 0DA12083
     Track not present in AccurateRip database
     Copy OK

Track 13

     Filename C:\Temp\A Skylit Drive - Wires and the Concept of Breathing (2008)\13. All it Takes for Your Dreams to Come True.wav

     Peak level 100.0 %
     Track quality 100.0 %
     Test CRC 5BD79570
     Copy CRC 5BD79570
     Track not present in AccurateRip database
     Copy OK

None of the tracks are present in the AccurateRip database

No errors occurred

End of status report

Код:
Код:
-----------------------

DON'T MODIFY THIS FILE

-----------------------

PERFORMER: auCDtect Task Manager, ver. 1.5.1RC6 build 1.5.1.7
Copyright (c) 2008-2010 y-soft. All rights reserved
http:/y-soft.org

ANALYZER: auCDtect: CD records authenticity detector, version 0.8.2
Copyright (c) 2004 Oleg Berngardt. All rights reserved.
Copyright (c) 2004 Alexander Djourik. All rights reserved.

FILE: 13. A Skylit Drive - All it Takes for Your Dreams to Come True.flac
  Size: 27141863 Hash: 05BA0F49ECD068F50D9252F37FBA8579 Accuracy: -m0
  Conclusion: CDDA 100%
  Signature: F67F846E9541E51B89AE1E9314BB1FBE3846CB69
FILE: 12. A Skylit Drive - Balance.flac
  Size: 33795946 Hash: 3112AD7E4EC42B1F8E847C42726B4ED6 Accuracy: -m0
  Conclusion: CDDA 100%
  Signature: 53B19AC513FF34770436BEDC77DB85961D92C5CA
FILE: 11. A Skylit Drive - Ex-Machina.flac
  Size: 26290621 Hash: 059AE0230166E26EE09FB8B659A341ED Accuracy: -m0
  Conclusion: CDDA 100%
  Signature: F5E358AFD1F036B8C825D59339F95FEA2804FEBD
FILE: 10. A Skylit Drive - Pursuit Lets Wisdom Ride the Wind.flac
  Size: 29111685 Hash: 4CAC4692210D8FB480171513A0135674 Accuracy: -m0
  Conclusion: CDDA 100%
  Signature: 980A786DC4CEDD8348F18BC43623C25D47C23086
FILE: 09. A Skylit Drive - Sleepwalker.flac
  Size: 11999368 Hash: F042FFC1DB7036AFE01E7903DBE6C4FB Accuracy: -m0
  Conclusion: CDDA 100%
  Signature: E4F339869FEEB13DD62D6F16147FD8D366D734AF
FILE: 08. A Skylit Drive - This Isn't the End.flac
  Size: 26198788 Hash: 6D6D2C60B545C3CC42840D39213DFBAB Accuracy: -m0
  Conclusion: CDDA 54%
  Signature: 9DECFC69CEF51FE834BA11853243422C07646854
FILE: 07. A Skylit Drive - My Disease.flac
  Size: 25519548 Hash: F5394FE3D75975644D5ECAA12469D2D4 Accuracy: -m0
  Conclusion: CDDA 100%
  Signature: 791AC377CCD21ED656571654386C2519CCFD1A98
FILE: 06. A Skylit Drive - I'm Not a Theif, I'm a Treasure Hunter.flac
  Size: 29541608 Hash: 00E349E12543B1A3C772C13507579CBB Accuracy: -m0
  Conclusion: CDDA 100%
  Signature: 43E0FD0F591F5133D60700CB0D4BBB25554B8C66
FILE: 05. A Skylit Drive - Eris and Dysnomia.flac
  Size: 19431480 Hash: 195D9B5FDC0541E6BE0A48F79B1FD367 Accuracy: -m0
  Conclusion: CDDA 100%
  Signature: FC7B4B035421427223ADF62086C22F7B4E1B994B
FILE: 04. A Skylit Drive - City On the Edge of Forever.flac
  Size: 30294344 Hash: 6040D81A359F663B454DF9AD6296DB37 Accuracy: -m0
  Conclusion: CDDA 85%
  Signature: E3A395436849EED554F9714A3CF5AA63C168D7A0
FILE: 03. A Skylit Drive - Wires (and the Concept of Breathing).flac
  Size: 22453522 Hash: 6D62717C359035778A69423DC3F84891 Accuracy: -m0
  Conclusion: CDDA 86%
  Signature: 0288BC3F732C8006F9BCC97E600F3713F4378007
FILE: 02. A Skylit Drive - Knights of the Round.flac
  Size: 24680079 Hash: 452AD67E65C789CD054987997C068830 Accuracy: -m0
  Conclusion: CDDA 100%
  Signature: 1205414E493ADAD6460D790A573DC3FC2C4293A5
FILE: 01. A Skylit Drive - In the Beginning, There Was Void.flac
  Size: 8183257 Hash: 23F8CC8D59E656B58824B07683370566 Accuracy: -m0
  Conclusion: CDDA 58%
  Signature: 0B2133385834E2A9EFA5AEE17575C3D25EB25F2E


#777Треклист:

01. Prelude To A Dream
02. Those Cannons Could Sink A Ship
03. Heaven
04. Running With The Light
05. Eva The Carrier
06. Worlds End In Whispers Not Bangs
07. The Boy Without A Demon
08. Thank God It's Cloudy Cause I'm Allergic To Sunlight
09. Air The Enlightenment
10. The Children Of Adelphia
11. I Swear This Place Is Haunted
12. It's Not Ironic It's Obvious
13. See You Around

Продолжительность: 00:43:27


Код:
Код:
Exact Audio Copy V0.99 prebeta 4 from 23. January 2008

EAC extraction logfile from 5. June 2009, 22:49

A Skylit Drive / Adelphia

Used drive  : TSSTcorpCD/DVDW TS-H652L   Adapter: 5  ID: 0

Read mode               : Secure
Utilize accurate stream : Yes
Defeat audio cache      : Yes
Make use of C2 pointers : No

Read offset correction                      : 6
Overread into Lead-In and Lead-Out          : No
Fill up missing offset samples with silence : Yes
Delete leading and trailing silent blocks   : No
Null samples used in CRC calculations       : Yes
Used interface                              : Native Win32 interface for Win NT & 2000
Gap handling                                : Appended to previous track

Used output format              : User Defined Encoder
Selected bitrate                : 128 kBit/s
Quality                         : High
Add ID3 tag                     : No
Command line compressor         : C:\Program Files\Exact Audio Copy\Flac\flac.exe
Additional command line options : -V -8 -T "artist=%a" -T "title=%t" -T "album=%g" -T "date=%y" -T "tracknumber=%n" -T "genre=%m" %s

TOC of the extracted CD

     Track |   Start  |  Length  | Start sector | End sector
    ---------------------------------------------------------
        1  |  0:00.00 |  3:29.29 |         0    |    15703
        2  |  3:29.29 |  3:36.22 |     15704    |    31925
        3  |  7:05.51 |  3:37.71 |     31926    |    48271
        4  | 10:43.47 |  3:47.41 |     48272    |    65337
        5  | 14:31.13 |  3:41.04 |     65338    |    81916
        6  | 18:12.17 |  1:26.26 |     81917    |    88392
        7  | 19:38.43 |  4:01.64 |     88393    |   106531
        8  | 23:40.32 |  3:27.49 |    106532    |   122105
        9  | 27:08.06 |  2:29.12 |    122106    |   133292
       10  | 29:37.18 |  3:00.65 |    133293    |   146857
       11  | 32:38.08 |  3:45.34 |    146858    |   163766
       12  | 36:23.42 |  3:41.02 |    163767    |   180343
       13  | 40:04.44 |  3:23.04 |    180344    |   195572

Track  1

     Filename K:\A Skylit Drive~Adelphia [FLAC]-2009\01 - Prelude To A Dream.wav

     Pre-gap length  0:00:02.00

     Peak level 98.0 %
     Track quality 100.0 %
     Test CRC FA955293
     Copy CRC FA955293
     Track not present in AccurateRip database
     Copy OK

Track  2

     Filename K:\A Skylit Drive~Adelphia [FLAC]-2009\02 - Those Cannons Could Sink A Ship.wav

     Peak level 98.0 %
     Track quality 100.0 %
     Test CRC 1E5F0EB0
     Copy CRC 1E5F0EB0
     Track not present in AccurateRip database
     Copy OK

Track  3

     Filename K:\A Skylit Drive~Adelphia [FLAC]-2009\03 - Heaven.wav

     Peak level 98.0 %
     Track quality 100.0 %
     Test CRC 9E9F7F36
     Copy CRC 9E9F7F36
     Track not present in AccurateRip database
     Copy OK

Track  4

     Filename K:\A Skylit Drive~Adelphia [FLAC]-2009\04 - Running With The Light.wav

     Peak level 98.0 %
     Track quality 100.0 %
     Test CRC 52697776
     Copy CRC 52697776
     Track not present in AccurateRip database
     Copy OK

Track  5

     Filename K:\A Skylit Drive~Adelphia [FLAC]-2009\05 - Eva The Carrier.wav

     Peak level 98.0 %
     Track quality 100.0 %
     Test CRC 568AA79B
     Copy CRC 568AA79B
     Track not present in AccurateRip database
     Copy OK

Track  6

     Filename K:\A Skylit Drive~Adelphia [FLAC]-2009\06 - Worlds End In Whispers Not Bangs.wav

     Peak level 99.9 %
     Track quality 99.8 %
     Test CRC 7C721BE5
     Copy CRC 7C721BE5
     Track not present in AccurateRip database
     Copy OK

Track  7

     Filename K:\A Skylit Drive~Adelphia [FLAC]-2009\07 - The Boy Without A Demon.wav

     Peak level 99.9 %
     Track quality 100.0 %
     Test CRC 8CD779E3
     Copy CRC 8CD779E3
     Track not present in AccurateRip database
     Copy OK

Track  8

     Filename K:\A Skylit Drive~Adelphia [FLAC]-2009\08 - Thank God It's Cloudy Cause I'm Allergic To Sunlight.wav

     Peak level 98.0 %
     Track quality 100.0 %
     Test CRC C0388E9C
     Copy CRC C0388E9C
     Track not present in AccurateRip database
     Copy OK

Track  9

     Filename K:\A Skylit Drive~Adelphia [FLAC]-2009\09 - Air The Enlightenment.wav

     Peak level 97.9 %
     Track quality 100.0 %
     Test CRC BC92B6AF
     Copy CRC BC92B6AF
     Track not present in AccurateRip database
     Copy OK

Track 10

     Filename K:\A Skylit Drive~Adelphia [FLAC]-2009\10 - The Children Of Adelphia.wav

     Peak level 98.0 %
     Track quality 100.0 %
     Test CRC 51A4FAD8
     Copy CRC 51A4FAD8
     Track not present in AccurateRip database
     Copy OK

Track 11

     Filename K:\A Skylit Drive~Adelphia [FLAC]-2009\11 - I Swear This Place Is Haunted.wav

     Peak level 98.0 %
     Track quality 99.9 %
     Test CRC DB53E26D
     Copy CRC DB53E26D
     Track not present in AccurateRip database
     Copy OK

Track 12

     Filename K:\A Skylit Drive~Adelphia [FLAC]-2009\12 - It's Not Ironic It's Obvious.wav

     Peak level 98.0 %
     Track quality 100.0 %
     Test CRC 77FE3C69
     Copy CRC 77FE3C69
     Track not present in AccurateRip database
     Copy OK

Track 13

     Filename K:\A Skylit Drive~Adelphia [FLAC]-2009\13 - See You Around.wav

     Peak level 98.0 %
     Track quality 100.0 %
     Test CRC 9755F97E
     Copy CRC 9755F97E
     Track not present in AccurateRip database
     Copy OK

None of the tracks are present in the AccurateRip database

No errors occurred

End of status report

Код:
Код:
-----------------------

DON'T MODIFY THIS FILE

-----------------------

PERFORMER: auCDtect Task Manager, ver. 1.5.1RC6 build 1.5.1.7
Copyright (c) 2008-2010 y-soft. All rights reserved
http:/y-soft.org

ANALYZER: auCDtect: CD records authenticity detector, version 0.8.2
Copyright (c) 2004 Oleg Berngardt. All rights reserved.
Copyright (c) 2004 Alexander Djourik. All rights reserved.

FILE: 13. A Skylit Drive - See You Around.flac
  Size: 26262252 Hash: 60283793A6A36F050286C0AAE2A36C9D Accuracy: -m0
  Conclusion: CDDA 99%
  Signature: 4BA83D42028F91F15BD033BBA6D7321451F38639
FILE: 12. A Skylit Drive - It's Not Ironic It's Obvious.flac
  Size: 26850679 Hash: 61EEAF2A43DCD2F1380CF5DED15664D8 Accuracy: -m0
  Conclusion: CDDA 100%
  Signature: 50BA956E3E764C86554E6DEA7A0B1D13B88C7AD2
FILE: 11. A Skylit Drive - I Swear This Place Is Haunted.flac
  Size: 27181881 Hash: DFDDB9F26A8D93B497C07C5178E33813 Accuracy: -m0
  Conclusion: CDDA 100%
  Signature: D067B131F9FF91B0D77200454CCCA34B2182844C
FILE: 10. A Skylit Drive - The Children Of Adelphia.flac
  Size: 24561067 Hash: C76677499A1DE66ED2940645CE95297F Accuracy: -m0
  Conclusion: CDDA 100%
  Signature: F05ED7C82A4EC3982D8B36DADB7177E7ADF76902
FILE: 09. A Skylit Drive - Air The Enlightenment.flac
  Size: 15740329 Hash: BBA9906EFE3EECE323525F9F343C83CC Accuracy: -m0
  Conclusion: CDDA 100%
  Signature: 67F950AF89C7728D9F6B3701D0C3AF33D74A6DE4
FILE: 08. A Skylit Drive - Thank God It's Cloudy Cause I'm Allergic To Sunlight.flac
  Size: 27555450 Hash: E867010BCE738A37C026727F7E351A8C Accuracy: -m0
  Conclusion: CDDA 99%
  Signature: A8DF1024338A73217BB9F67BDBFA65F5C6F443F2
FILE: 07. A Skylit Drive - The Boy Without A Demon.flac
  Size: 31407916 Hash: E8916F2C1C295A371E6B79D4F4B11379 Accuracy: -m0
  Conclusion: CDDA 100%
  Signature: 724A90DFDD464ADB04E669486B546F3F7CCAEDE6
FILE: 06. A Skylit Drive - Worlds End In Whispers Not Bangs.flac
  Size: 6437363 Hash: 27505E54404989A893666DB745D7C629 Accuracy: -m0
  Conclusion: ???
  Signature: 5365A065B3A1F09971A959BEB4E5EC41CBB02F4E
FILE: 05. A Skylit Drive - Eva The Carrier.flac
  Size: 28525588 Hash: CADAE8206D5199CBC1E383E1D3B0F55C Accuracy: -m0
  Conclusion: CDDA 100%
  Signature: 2776FD369FFE6007BAE398B937E2C18AC91F12D8
FILE: 04. A Skylit Drive - Running With The Light.flac
  Size: 29346030 Hash: 6D9DD55522811E10DFE2D57086E70FD4 Accuracy: -m0
  Conclusion: CDDA 100%
  Signature: DD8FC49B803A54C9A0F63CE093C41370B065D6FF
FILE: 03. A Skylit Drive - Heaven.flac
  Size: 28912775 Hash: 67797EC1ECBB228D2A0BC93B5E41DAEC Accuracy: -m0
  Conclusion: CDDA 100%
  Signature: 0E8BC4F8307FC4C7F198FBB60F41D82FEA2DEEFE
FILE: 02. A Skylit Drive - Those Cannons Could Sink A Ship.flac
  Size: 29135329 Hash: ACDE4B7B088CDF8FEF40E7E8CB389EF2 Accuracy: -m0
  Conclusion: CDDA 100%
  Signature: F5ADDCA748BEBF7652DBDBBBC5936392471BD782
FILE: 01. A Skylit Drive - Prelude To A Dream.flac
  Size: 27054491 Hash: 89F0DDD23364C3F5F0D2AB99FE5DC272 Accuracy: -m0
  Conclusion: CDDA 99%
  Signature: E89DD5CE880AD078B5654FA31DC8955C37787057



#777Треклист:

01. Carry The Broken
02. Too Little Too Late
03. XO Skeleton
04. Conscience Is A Killer
05. Ex Marks The Spot
06. The Cali Buds
07. Your Mistake
08. F**k the System
09. 500 Days Of Summer
10. Tempt Me, Temptation
11. Identity On Fire
12. If You Lived Here You'd Be Home

Продолжительность: 00:43:20


Код:
Код:
Exact Audio Copy V1.0 beta 1 from 15. November 2010

EAC extraction logfile from 14. February 2011, 18:03

A Skylit Drive / Identity On Fire

Used drive  : HL-DT-STDVDRAM GH24NS50   Adapter: 4  ID: 1

Read mode               : Secure
Utilize accurate stream : Yes
Defeat audio cache      : Yes
Make use of C2 pointers : No

Read offset correction                      : 667
Overread into Lead-In and Lead-Out          : No
Fill up missing offset samples with silence : Yes
Delete leading and trailing silent blocks   : No
Null samples used in CRC calculations       : Yes
Used interface                              : Native Win32 interface for Win NT & 2000
Gap handling                                : Appended to previous track

Used output format              : User Defined Encoder
Selected bitrate                : 896 kBit/s
Quality                         : High
Add ID3 tag                     : No
Command line compressor         : C:\Program Files (x86)\FLAC\flac.exe
Additional command line options : -V -8 -T "artist=%a" -T "title=%t" -T "album=%g" -T "date=%y" -T "tracknumber=%n" -T "genre=%m" %s

TOC of the extracted CD

     Track |   Start  |  Length  | Start sector | End sector
    ---------------------------------------------------------
        1  |  0:00.00 |  1:23.24 |         0    |     6248
        2  |  1:23.24 |  3:11.14 |      6249    |    20587
        3  |  4:34.38 |  3:30.35 |     20588    |    36372
        4  |  8:04.73 |  3:55.22 |     36373    |    54019
        5  | 12:00.20 |  4:35.05 |     54020    |    74649
        6  | 16:35.25 |  3:38.39 |     74650    |    91038
        7  | 20:13.64 |  3:48.08 |     91039    |   108146
        8  | 24:01.72 |  2:57.38 |    108147    |   121459
        9  | 26:59.35 |  4:22.02 |    121460    |   141111
       10  | 31:21.37 |  3:29.48 |    141112    |   156834
       11  | 34:51.10 |  4:18.68 |    156835    |   176252
       12  | 39:10.03 |  4:10.62 |    176253    |   195064

Track  1

     Filename C:\EAC Rips\A Skylit Drive\Identity On Fire\01 Carry The Broken.wav

     Pre-gap length  0:00:02.00

     Peak level 97.5 %
     Extraction speed 0.8 X
     Track quality 100.0 %
     Test CRC C877FE0A
     Copy CRC C877FE0A
     Track not present in AccurateRip database
     Copy OK

Track  2

     Filename C:\EAC Rips\A Skylit Drive\Identity On Fire\02 Too Little Too Late.wav

     Peak level 100.0 %
     Extraction speed 1.1 X
     Track quality 100.0 %
     Test CRC F1B3433A
     Copy CRC F1B3433A
     Track not present in AccurateRip database
     Copy OK

Track  3

     Filename C:\EAC Rips\A Skylit Drive\Identity On Fire\03 XO Skeleton.wav

     Peak level 98.9 %
     Extraction speed 1.2 X
     Track quality 100.0 %
     Test CRC ACAA2CE8
     Copy CRC ACAA2CE8
     Track not present in AccurateRip database
     Copy OK

Track  4

     Filename C:\EAC Rips\A Skylit Drive\Identity On Fire\04 Conscience Is A Killer.wav

     Peak level 99.1 %
     Extraction speed 1.4 X
     Track quality 100.0 %
     Test CRC DCD175D1
     Copy CRC DCD175D1
     Track not present in AccurateRip database
     Copy OK

Track  5

     Filename C:\EAC Rips\A Skylit Drive\Identity On Fire\05 Ex Marks The Spot.wav

     Peak level 97.9 %
     Extraction speed 1.6 X
     Track quality 100.0 %
     Test CRC 29D9630B
     Copy CRC 29D9630B
     Track not present in AccurateRip database
     Copy OK

Track  6

     Filename C:\EAC Rips\A Skylit Drive\Identity On Fire\06 The Cali Buds.wav

     Peak level 97.9 %
     Extraction speed 1.6 X
     Track quality 100.0 %
     Test CRC ACE6029F
     Copy CRC ACE6029F
     Track not present in AccurateRip database
     Copy OK

Track  7

     Filename C:\EAC Rips\A Skylit Drive\Identity On Fire\07 Your Mistake.wav

     Peak level 97.9 %
     Extraction speed 1.5 X
     Track quality 99.9 %
     Test CRC EBE3357C
     Copy CRC EBE3357C
     Track not present in AccurateRip database
     Copy OK

Track  8

     Filename C:\EAC Rips\A Skylit Drive\Identity On Fire\08 Fxxk the System.wav

     Peak level 97.9 %
     Extraction speed 1.7 X
     Track quality 100.0 %
     Test CRC C6CFC35F
     Copy CRC C6CFC35F
     Track not present in AccurateRip database
     Copy OK

Track  9

     Filename C:\EAC Rips\A Skylit Drive\Identity On Fire\09 500 Days Of Summer.wav

     Peak level 98.0 %
     Extraction speed 1.9 X
     Track quality 100.0 %
     Test CRC 86EF62BD
     Copy CRC 86EF62BD
     Track not present in AccurateRip database
     Copy OK

Track 10

     Filename C:\EAC Rips\A Skylit Drive\Identity On Fire\10 Tempt Me, Temptation.wav

     Peak level 97.9 %
     Extraction speed 1.9 X
     Track quality 100.0 %
     Test CRC 2C887EB1
     Copy CRC 2C887EB1
     Track not present in AccurateRip database
     Copy OK

Track 11

     Filename C:\EAC Rips\A Skylit Drive\Identity On Fire\11 Identity On Fire.wav

     Peak level 97.9 %
     Extraction speed 2.0 X
     Track quality 100.0 %
     Test CRC F78EE53B
     Copy CRC F78EE53B
     Track not present in AccurateRip database
     Copy OK

Track 12

     Filename C:\EAC Rips\A Skylit Drive\Identity On Fire\12 If You Lived Here You'd Be Home.wav

     Peak level 97.9 %
     Extraction speed 2.2 X
     Track quality 100.0 %
     Test CRC 2789ADC2
     Copy CRC 2789ADC2
     Track not present in AccurateRip database
     Copy OK

None of the tracks are present in the AccurateRip database

No errors occurred

End of status report

==== Log checksum E8A7E7318A7FE464E912DD987781788EB28E16B21CB0DEA23738A1E180B566E8 ====

Код:
Код:
-----------------------

DON'T MODIFY THIS FILE

-----------------------

PERFORMER: auCDtect Task Manager, ver. 1.5.1RC6 build 1.5.1.7
Copyright (c) 2008-2010 y-soft. All rights reserved
http:/y-soft.org

ANALYZER: auCDtect: CD records authenticity detector, version 0.8.2
Copyright (c) 2004 Oleg Berngardt. All rights reserved.
Copyright (c) 2004 Alexander Djourik. All rights reserved.

FILE: 12. A Skylit Drive - If You Lived Here You'd Be Home.flac
  Size: 32844512 Hash: F47E3EAB98C0A7D23C9F0E80E498BDF1 Accuracy: -m0
  Conclusion: CDDA 100%
  Signature: 1E40C14DEBA09F36C7991609ABAF89E5993BE893
FILE: 11. A Skylit Drive - Identity On Fire.flac
  Size: 34065401 Hash: 02E1F89B0EA6229D60E2C8B8224132A6 Accuracy: -m0
  Conclusion: CDDA 100%
  Signature: 4057641B6BF2106981F59969B19C00562530C4A6
FILE: 10. A Skylit Drive - Tempt Me, Temptation.flac
  Size: 27810392 Hash: E43594B42887665D417C5D1C5D679F66 Accuracy: -m0
  Conclusion: CDDA 100%
  Signature: A66133FE32EF53E17E3535D7DEB9023F85F0048A
FILE: 09. A Skylit Drive - 500 Days Of Summer.flac
  Size: 34887825 Hash: 3C7633AF6A522CC0F14D3AED1EE1327A Accuracy: -m0
  Conclusion: CDDA 100%
  Signature: 8D7C3A24D6A000FBEE7B36608D2A7C2DB047130B
FILE: 08. A Skylit Drive - F__k the System.flac
  Size: 24672836 Hash: DA5D54DB18DF55BE6A8EA03ABD779865 Accuracy: -m0
  Conclusion: CDDA 100%
  Signature: 13BA0495994979A93B284E18F198AA9BE6A4B57D
FILE: 07. A Skylit Drive - Your Mistake.flac
  Size: 30536384 Hash: 43B4F44550E05607873E677B48413474 Accuracy: -m0
  Conclusion: CDDA 100%
  Signature: C5B308F464BA999001AD853A3E8EC0D80DFBD45D
FILE: 06. A Skylit Drive - The Cali Buds.flac
  Size: 29352795 Hash: 952B87F9A41055E06C52B607053A2F65 Accuracy: -m0
  Conclusion: CDDA 100%
  Signature: 8692D510880033CA4E1D9588701E26F8BB865E80
FILE: 05. A Skylit Drive - Ex Marks The Spot.flac
  Size: 37102513 Hash: 8D9D5ADE906AB77995065C4963B1C015 Accuracy: -m0
  Conclusion: CDDA 100%
  Signature: 96CC0CB3EBFD29CFCAE0CCD257556396D925404B
FILE: 04. A Skylit Drive - Conscience Is A Killer.flac
  Size: 32001402 Hash: B4AC8A0F8513EAC7B41C7CB269CF211A Accuracy: -m0
  Conclusion: CDDA 99%
  Signature: C9611E2B100008AE3E026D6C10DA0AC4B2D24264
FILE: 03. A Skylit Drive - XO Skeleton.flac
  Size: 28681814 Hash: 9EF4A7F83634680F67F67F40F18EDF59 Accuracy: -m0
  Conclusion: CDDA 99%
  Signature: 8DCAE88918E4E6A49574722BD2C6E9CFBA78B523
FILE: 02. A Skylit Drive - Too Little Too Late.flac
  Size: 25842597 Hash: AA390A3EBBEB8A7411785307DDD96059 Accuracy: -m0
  Conclusion: CDDA 100%
  Signature: 146E9AEF596B4EAB6AABB5033F64DC5674749F27
FILE: 01. A Skylit Drive - Carry The Broken.flac
  Size: 9682677 Hash: B94F8D6BF78B01D2F418D456836B0E1C Accuracy: -m0
  Conclusion: CDDA 100%
  Signature: 06562E33B7DB38AD0953D9676E27023E6AEFF4BD


#777Треклист:

01. Save Me Tragedy
02. Unbreakable
03. Crash Down
04. Rise
05. Crazy
06. Said & Done
07. Just Stay
08. Pendulum
09. I, Enemy
10. Wide Awake
11. Shadows
12. Dreaming In Blue
13. Fallen
14. Rise (Demo Version)
15. Just Stay (Demo Version)

Продолжительность: 00:52:02


Код:
Код:
Exact Audio Copy V1.0 beta 3 from 29. August 2011

EAC extraction logfile from 24. September 2013, 23:09

A Skylit Drive / Rise

Used drive  : ASUS    DRW-24B1ST   c   Adapter: 0  ID: 0

Read mode               : Secure
Utilize accurate stream : Yes
Defeat audio cache      : Yes
Make use of C2 pointers : No

Read offset correction                      : 6
Overread into Lead-In and Lead-Out          : No
Fill up missing offset samples with silence : Yes
Delete leading and trailing silent blocks   : No
Null samples used in CRC calculations       : Yes
Used interface                              : Native Win32 interface for Win NT & 2000
Gap handling                                : Appended to previous track

Used output format              : User Defined Encoder
Selected bitrate                : 1024 kBit/s
Quality                         : High
Add ID3 tag                     : No
Command line compressor         : C:\Program Files (x86)\Exact Audio Copy\Flac\flac.exe
Additional command line options : -8 -V -T "ARTIST=%artist%" -T "TITLE=%title%" -T "ALBUM=%albumtitle%" -T "DATE=%year%" -T "TRACKNUMBER=%tracknr%" -T "GENRE=%genre%" -T "PERFORMER=%albuminterpret%" -T "COMPOSER=%composer%" %haslyrics%--tag-from-file=LYRICS="%lyricsfile%"%haslyrics% -T "ALBUMARTIST=%albumartist%" -T "DISCNUMBER=%cdnumber%" -T "TOTALDISCS=%totalcds%" -T "TOTALTRACKS=%numtracks%" -T "COMMENT=%comment%" %source% -o %dest%

TOC of the extracted CD

     Track |   Start  |  Length  | Start sector | End sector
    ---------------------------------------------------------
        1  |  0:00.00 |  3:14.18 |         0    |    14567
        2  |  3:14.18 |  3:23.59 |     14568    |    29851
        3  |  6:38.02 |  3:24.73 |     29852    |    45224
        4  | 10:03.00 |  3:14.43 |     45225    |    59817
        5  | 13:17.43 |  3:01.03 |     59818    |    73395
        6  | 16:18.46 |  3:42.00 |     73396    |    90045
        7  | 20:00.46 |  4:18.63 |     90046    |   109458
        8  | 24:19.34 |  3:22.67 |    109459    |   124675
        9  | 27:42.26 |  3:03.67 |    124676    |   138467
       10  | 30:46.18 |  3:23.66 |    138468    |   153758
       11  | 34:10.09 |  3:40.43 |    153759    |   170301
       12  | 37:50.52 |  3:08.43 |    170302    |   184444
       13  | 40:59.20 |  3:28.32 |    184445    |   200076
       14  | 44:27.52 |  3:17.29 |    200077    |   214880
       15  | 47:45.06 |  4:17.30 |    214881    |   234185

Track  1

     Filename Y:\Music\A Skylit Drive - Rise [2013]\01 - Save Me Tragedy.wav

     Pre-gap length  0:00:02.00

     Peak level 98.5 %
     Extraction speed 5.0 X
     Track quality 100.0 %
     Test CRC D5BB9DDF
     Copy CRC D5BB9DDF
     Track not present in AccurateRip database
     Copy OK

Track  2

     Filename Y:\Music\A Skylit Drive - Rise [2013]\02 - Unbreakable.wav

     Pre-gap length  0:00:02.00

     Peak level 98.1 %
     Extraction speed 5.6 X
     Track quality 100.0 %
     Test CRC 41AFDBD6
     Copy CRC 41AFDBD6
     Track not present in AccurateRip database
     Copy OK

Track  3

     Filename Y:\Music\A Skylit Drive - Rise [2013]\03 - Crash Down.wav

     Pre-gap length  0:00:02.00

     Peak level 100.0 %
     Extraction speed 6.1 X
     Track quality 100.0 %
     Test CRC D4C88E0E
     Copy CRC D4C88E0E
     Track not present in AccurateRip database
     Copy OK

Track  4

     Filename Y:\Music\A Skylit Drive - Rise [2013]\04 - Rise.wav

     Pre-gap length  0:00:02.00

     Peak level 98.2 %
     Extraction speed 6.3 X
     Track quality 100.0 %
     Test CRC C5F19B51
     Copy CRC C5F19B51
     Track not present in AccurateRip database
     Copy OK

Track  5

     Filename Y:\Music\A Skylit Drive - Rise [2013]\05 - Crazy.wav

     Pre-gap length  0:00:02.00

     Peak level 98.4 %
     Extraction speed 6.6 X
     Track quality 100.0 %
     Test CRC 245F472A
     Copy CRC 245F472A
     Track not present in AccurateRip database
     Copy OK

Track  6

     Filename Y:\Music\A Skylit Drive - Rise [2013]\06 - Said & Done.wav

     Pre-gap length  0:00:02.00

     Peak level 98.0 %
     Extraction speed 7.2 X
     Track quality 100.0 %
     Test CRC F7B4CDA3
     Copy CRC F7B4CDA3
     Track not present in AccurateRip database
     Copy OK

Track  7

     Filename Y:\Music\A Skylit Drive - Rise [2013]\07 - Just Stay.wav

     Pre-gap length  0:00:02.00

     Peak level 97.9 %
     Extraction speed 7.8 X
     Track quality 100.0 %
     Test CRC D4B6ACD4
     Copy CRC D4B6ACD4
     Track not present in AccurateRip database
     Copy OK

Track  8

     Filename Y:\Music\A Skylit Drive - Rise [2013]\08 - Pendulum.wav

     Pre-gap length  0:00:02.00

     Peak level 98.3 %
     Extraction speed 7.8 X
     Track quality 100.0 %
     Test CRC 4A14D1C8
     Copy CRC 4A14D1C8
     Track not present in AccurateRip database
     Copy OK

Track  9

     Filename Y:\Music\A Skylit Drive - Rise [2013]\09 - I, Enemy.wav

     Pre-gap length  0:00:02.00

     Peak level 97.8 %
     Extraction speed 6.1 X
     Track quality 99.9 %
     Test CRC F5CC4257
     Copy CRC F5CC4257
     Track not present in AccurateRip database
     Copy OK

Track 10

     Filename Y:\Music\A Skylit Drive - Rise [2013]\10 - Wide Awake.wav

     Pre-gap length  0:00:02.00

     Peak level 99.1 %
     Extraction speed 8.3 X
     Track quality 100.0 %
     Test CRC A20F4710
     Copy CRC A20F4710
     Track not present in AccurateRip database
     Copy OK

Track 11

     Filename Y:\Music\A Skylit Drive - Rise [2013]\11 - Shadows.wav

     Pre-gap length  0:00:02.00

     Peak level 98.1 %
     Extraction speed 8.7 X
     Track quality 100.0 %
     Test CRC 3ECC84C9
     Copy CRC 3ECC84C9
     Track not present in AccurateRip database
     Copy OK

Track 12

     Filename Y:\Music\A Skylit Drive - Rise [2013]\12 - Dreaming In Blue.wav

     Pre-gap length  0:00:02.00

     Peak level 98.1 %
     Extraction speed 6.8 X
     Track quality 99.9 %
     Test CRC C028A663
     Copy CRC C028A663
     Track not present in AccurateRip database
     Copy OK

Track 13

     Filename Y:\Music\A Skylit Drive - Rise [2013]\13 - Fallen.wav

     Pre-gap length  0:00:02.00

     Peak level 100.0 %
     Extraction speed 9.2 X
     Track quality 100.0 %
     Test CRC 5E9CC8FF
     Copy CRC 5E9CC8FF
     Track not present in AccurateRip database
     Copy OK

Track 14

     Filename Y:\Music\A Skylit Drive - Rise [2013]\14 - Rise (Demo Version).wav

     Pre-gap length  0:00:02.00

     Peak level 96.6 %
     Extraction speed 9.3 X
     Track quality 100.0 %
     Test CRC FA7082C3
     Copy CRC FA7082C3
     Track not present in AccurateRip database
     Copy OK

Track 15

     Filename Y:\Music\A Skylit Drive - Rise [2013]\15 - Just Stay (Demo Version).wav

     Pre-gap length  0:00:02.00

     Peak level 96.6 %
     Extraction speed 10.0 X
     Track quality 100.0 %
     Test CRC B4BC3ED6
     Copy CRC B4BC3ED6
     Track not present in AccurateRip database
     Copy OK

None of the tracks are present in the AccurateRip database

No errors occurred

End of status report

==== Log checksum 49775CCDC91A6E00B028F65976CC256E78CD6B02A379375FE769F86F2735F3C1 ====

Код:
Код:
-----------------------

DON'T MODIFY THIS FILE

-----------------------

PERFORMER: auCDtect Task Manager, ver. 1.5.1RC6 build 1.5.1.7
Copyright (c) 2008-2010 y-soft. All rights reserved
http:/y-soft.org

ANALYZER: auCDtect: CD records authenticity detector, version 0.8.2
Copyright (c) 2004 Oleg Berngardt. All rights reserved.
Copyright (c) 2004 Alexander Djourik. All rights reserved.

FILE: 15. A Skylit Drive - Just Stay (Demo Version).flac
  Size: 35569559 Hash: 7759B7A8AAC3902AE4336297931D357B Accuracy: -m0
  Conclusion: CDDA 99%
  Signature: 666EEE4A9FDBDF004133CA2AEF1C1F9B46D8AF53
FILE: 14. A Skylit Drive - Rise (Demo Version).flac
  Size: 29604946 Hash: 10090A818CA6A8E3B1D8A8838DA444CD Accuracy: -m0
  Conclusion: CDDA 87%
  Signature: F36948FD62972C9AF6ED1263C9F1DB795ABB3761
FILE: 13. A Skylit Drive - Fallen.flac
  Size: 34240851 Hash: 6F9A6CCFD77E282D8AC5945287013838 Accuracy: -m0
  Conclusion: MPEG 95%
  Signature: 4729CB572995099D0384E1D0242DA7FE04910637
FILE: 12. A Skylit Drive - Dreaming In Blue.flac
  Size: 31396470 Hash: 77A28B77A21D21896BE3B7C8995FE651 Accuracy: -m0
  Conclusion: CDDA 100%
  Signature: D213150013F08BF0831EB4CD2E1ACF66FDCB28F4
FILE: 11. A Skylit Drive - Shadows.flac
  Size: 35909325 Hash: 1151FBF499E3C917AA90EFE8965B5EA1 Accuracy: -m0
  Conclusion: CDDA 100%
  Signature: 36910C7080E524CA4E82F7E30DE64050FD84517E
FILE: 10. A Skylit Drive - Wide Awake.flac
  Size: 34047836 Hash: C73CE7D55588D583DF7BF886EB267E7F Accuracy: -m0
  Conclusion: CDDA 100%
  Signature: DF8D8FEB2F66BC26ACAC2EFD077A490A6083BEC7
FILE: 09. A Skylit Drive - I, Enemy.flac
  Size: 30978616 Hash: 9B448937FAE6B219DF565FDD977E1EFE Accuracy: -m0
  Conclusion: CDDA 100%
  Signature: C245AFF29BCB18D573BDB9A30E654D827E883208
FILE: 08. A Skylit Drive - Pendulum.flac
  Size: 33522235 Hash: D186F36DE4E138C886EE541081C7523B Accuracy: -m0
  Conclusion: CDDA 100%
  Signature: 56AF44394E6CCAA1884A959A20B68725A9D01C96
FILE: 07. A Skylit Drive - Just Stay.flac
  Size: 38010809 Hash: 6543937CB200FD45CF01AE6B275B3B57 Accuracy: -m0
  Conclusion: CDDA 100%
  Signature: 0899CF6657A41120A7A4F1F7CB5EE3E98F2183D2
FILE: 06. A Skylit Drive - Said & Done.flac
  Size: 36676265 Hash: F4ADB3EF0991D02826DD681AEBAA84E1 Accuracy: -m0
  Conclusion: CDDA 100%
  Signature: 834221C4A12906EBEFBCC4C09BFCEE46714EB414
FILE: 05. A Skylit Drive - Crazy.flac
  Size: 30808418 Hash: DAFCE60BE9B65905DE5B96A725334944 Accuracy: -m0
  Conclusion: CDDA 100%
  Signature: 56C65E696599B60B82892398D44999A7B34E6519
FILE: 04. A Skylit Drive - Rise.flac
  Size: 32702097 Hash: 78F0F17D1175F90CD65FC88514B1B1EC Accuracy: -m0
  Conclusion: CDDA 100%
  Signature: EF192A086738F8E82AF37E6B07EBC3CC95346A9D
FILE: 03. A Skylit Drive - Crash Down.flac
  Size: 33202905 Hash: 34D34FACAD07283020B9C7C8AE605C17 Accuracy: -m0
  Conclusion: CDDA 100%
  Signature: 8EFC451C7D8FBD38D82F70AF07A06D496C700740
FILE: 02. A Skylit Drive - Unbreakable.flac
  Size: 34058463 Hash: A544B335D698443AC113E14291C4B17C Accuracy: -m0
  Conclusion: CDDA 100%
  Signature: 8350580681CF11B4C75062BB0E9FDFA3D2E966E6
FILE: 01. A Skylit Drive - Save Me Tragedy.flac
  Size: 32696525 Hash: 3448BBCAC8A181D6D88C6233B17C731F Accuracy: -m0
  Conclusion: CDDA 100%
  Signature: 42A5B9A0E1C782A23A4EA0CC12AAD3BCAE80BEE3




Тип рипа: Tracks+.cue
Аудиокодек: FLAC
Битрейт аудио: lossless
Правила, инструкции, FAQ!!!
Торрент  Добавлен [16 мар 2014, 00:53] Скачать торрент Магнет ссылка
Скачать торрент
[ Размер 25.86 КБ / Просмотров 62 ]

Статус  
 
Размер  1.64 ГБ
Приватный: Нет (DHT включён)
.torrent скачан  1
 


     Отправить личное сообщение
   
Страница 1 из 1
Показать сообщения за:  Поле сортировки  
Начать новую тему Ответить на тему


Сейчас этот форум просматривают: нет зарегистрированных пользователей и гости: 0


Вы не можете начинать темы
Вы не можете отвечать на сообщения
Вы не можете редактировать свои сообщения
Вы не можете удалять свои сообщения
Вы не можете добавлять вложения

Перейти:  
cron