Начать новую тему Ответить на тему
Статистика раздачи
Размер: 578.51 МБ | Добавлен: 16 мар 2014, 00:45 | Скачали: 0
Сидеров: 2  [0 байт/сек]    Личеров: 1  [0 байт/сек]
Пред. тема | След. тема 

Автор
Сообщение

СообщениеДобавлено: 16 мар 2014, 00:45 

Ответить с цитатой 

A Perfect Circle - Three Sixty (2013)

Год: 2013
Жанр: Alternative Rock, Progressive Rock
Продолжительность: 01:28:10
Дата издания диска : 2013
Страна производитель диска: USA
Издатель (лейбл): Virgin
Источник (релизер): Winchester
Наличие сканов в содержимом раздачи: Нет
Кодек: FLAC
Тип рипа: image+.cue (в образ конвертировано CUETools)
Битрейт: Lossless
Треклист:
Треклист:
01. The Hollow (03:00)
02. Rose (03:26)
03. Judith (04:06)
04. Orestes (04:48)
05. 3 Libras (03:37)
06. The Package (07:41)
07. Weak And Powerless (03:12)
08. The Noose (04:56)
09. The Outsider (04:08)
10. Blue (04:09)
Пpодолжительность: 00:43:01
Код:
Код:
Exact Audio Copy V1.0 beta 3 from 29. August 2011

EAC extraction logfile from 18. November 2013, 18:18

A Perfect Circle / Three Sixty Disc 1

Used drive  : ATAPI   iHES112   3   Adapter: 0  ID: 0

Read mode               : Secure
Utilize accurate stream : Yes
Defeat audio cache      : Yes
Make use of C2 pointers : No

Read offset correction                      : 702
Overread into Lead-In and Lead-Out          : No
Fill up missing offset samples with silence : Yes
Delete leading and trailing silent blocks   : No
Null samples used in CRC calculations       : Yes
Used interface                              : Native Win32 interface for Win NT & 2000
Gap handling                                : Appended to previous track

Used output format              : User Defined Encoder
Selected bitrate                : 1024 kBit/s
Quality                         : High
Add ID3 tag                     : No
Command line compressor         : C:\Program Files (x86)\Exact Audio Copy\Flac\flac.exe
Additional command line options : -8 -V -T "ARTIST=%artist%" -T "TITLE=%title%" -T "ALBUM=%albumtitle%" -T "DATE=%year%" -T "TRACKNUMBER=%tracknr1%" -T "GENRE=%genre%" -T "PERFORMER=%albuminterpret%" -T "COMPOSER=%composer%" %haslyrics%--tag-from-file=LYRICS="%lyricsfile%"%haslyrics% -T "ALBUMARTIST=%albumartist%" -T "DISCNUMBER=%cdnumber%" -T "TOTALDISCS=%totalcds%" -T "TOTALTRACKS=%numtracks%" -T "COMMENT=%comment%" %source% -o %dest%

TOC of the extracted CD

     Track |   Start  |  Length  | Start sector | End sector
    ---------------------------------------------------------
        1  |  0:00.00 |  2:59.45 |         0    |    13469
        2  |  2:59.45 |  3:25.72 |     13470    |    28916
        3  |  6:25.42 |  4:05.63 |     28917    |    47354
        4  | 10:31.30 |  4:47.35 |     47355    |    68914
        5  | 15:18.65 |  3:37.27 |     68915    |    85216
        6  | 18:56.17 |  7:40.43 |     85217    |   119759
        7  | 26:36.60 |  3:11.56 |    119760    |   134140
        8  | 29:48.41 |  4:55.58 |    134141    |   156323
        9  | 34:44.24 |  4:07.43 |    156324    |   174891
       10  | 38:51.67 |  4:09.03 |    174892    |   193569

Track  1

     Filename D:\EAC Rips\01 - The Hollow.wav

     Pre-gap length  0:00:02.00

     Peak level 100.0 %
     Extraction speed 4.0 X
     Track quality 99.9 %
     Test CRC 9E44066E
     Copy CRC 9E44066E
     Track not present in AccurateRip database
     Copy OK

Track  2

     Filename D:\EAC Rips\02 - Rose.wav

     Pre-gap length  0:00:01.24

     Peak level 100.0 %
     Extraction speed 5.5 X
     Track quality 100.0 %
     Test CRC E9DF5387
     Copy CRC E9DF5387
     Track not present in AccurateRip database
     Copy OK

Track  3

     Filename D:\EAC Rips\03 - Judith.wav

     Pre-gap length  0:00:01.96

     Peak level 100.0 %
     Extraction speed 5.8 X
     Track quality 100.0 %
     Test CRC 43B5C90B
     Copy CRC 43B5C90B
     Track not present in AccurateRip database
     Copy OK

Track  4

     Filename D:\EAC Rips\04 - Orestes.wav

     Pre-gap length  0:00:01.26

     Peak level 100.0 %
     Extraction speed 5.9 X
     Track quality 99.9 %
     Test CRC A79C5DC0
     Copy CRC A79C5DC0
     Track not present in AccurateRip database
     Copy OK

Track  5

     Filename D:\EAC Rips\05 - 3 Libras.wav

     Pre-gap length  0:00:01.37

     Peak level 100.0 %
     Extraction speed 7.0 X
     Track quality 100.0 %
     Test CRC CBCAED99
     Copy CRC CBCAED99
     Track not present in AccurateRip database
     Copy OK

Track  6

     Filename D:\EAC Rips\06 - The Package.wav

     Pre-gap length  0:00:01.50

     Peak level 100.0 %
     Extraction speed 8.1 X
     Track quality 100.0 %
     Test CRC 1D9320BC
     Copy CRC 1D9320BC
     Track not present in AccurateRip database
     Copy OK

Track  7

     Filename D:\EAC Rips\07 - Weak and Powerless.wav

     Peak level 100.0 %
     Extraction speed 7.9 X
     Track quality 100.0 %
     Test CRC 87AE9391
     Copy CRC 87AE9391
     Track not present in AccurateRip database
     Copy OK

Track  8

     Filename D:\EAC Rips\08 - The Noose.wav

     Peak level 99.8 %
     Extraction speed 6.9 X
     Track quality 99.9 %
     Test CRC B4D157CF
     Copy CRC B4D157CF
     Track not present in AccurateRip database
     Copy OK

Track  9

     Filename D:\EAC Rips\09 - The Outsider.wav

     Pre-gap length  0:00:01.45

     Peak level 100.0 %
     Extraction speed 8.9 X
     Track quality 100.0 %
     Test CRC 042FEA28
     Copy CRC 042FEA28
     Track not present in AccurateRip database
     Copy OK

Track 10

     Filename D:\EAC Rips\10 - Blue.wav

     Pre-gap length  0:00:01.56

     Peak level 100.0 %
     Extraction speed 6.0 X
     Track quality 99.9 %
     Test CRC 08791A62
     Copy CRC 08791A62
     Track not present in AccurateRip database
     Copy OK

None of the tracks are present in the AccurateRip database

No errors occurred

End of status report

---- CUETools DB Plugin V2.1.3

[CTDB TOCID: W1_jYmBEJDAGrfpDMOPaNs.LD8E-] disk not present in database, Submit result: W1_jYmBEJDAGrfpDMOPaNs.LD8E- has been uploaded

==== Log checksum 3175FD3D3E32BCA686ECA223D91CF786F95E5BEF4ECFF6CC7929DF183C87B43E ====
Код:
Код:
-----------------------

DON'T MODIFY THIS FILE

-----------------------

PERFORMER: auCDtect Task Manager, ver. 1.6.0 RC1 build 1.6.0.1
Copyright (c) 2008-2010 y-soft. All rights reserved
http:/y-soft.org

ANALYZER: auCDtect: CD records authenticity detector, version 0.8.2
Copyright (c) 2004 Oleg Berngardt. All rights reserved.
Copyright (c) 2004 Alexander Djourik. All rights reserved.

FILE: A Perfect Circle - Three Sixty Disc 1.flac
  Size: 305903427 Hash: 7587B9744A86186C6F0DD33F5398121D Accuracy: -m0
  Conclusion: CDDA 100%
  Signature: 9E9C3C14A8E87176F765B5FB532E43652F5AA9A0
Код:
Код:
[CUETools log; Date: 28.11.2013 14:24:59; Version: 2.1.4]
[AccurateRip ID: 000f9a61-007f7ed7-850a140a] disk not present in database.

Track Peak [ CRC32  ] [W/O NULL] [  LOG   ]
 --  100,0 [EA01EB76] [F401D66D]
 01  100,0 [9E44066E] [E3C89122]   CRC32
 02  100,0 [E9DF5387] [56E29369]   CRC32
 03  100,0 [43B5C90B] [C59E87FA]   CRC32
 04  100,0 [A79C5DC0] [DE989A0E]   CRC32
 05  100,0 [CBCAED99] [DBA2F408]   CRC32
 06  100,0 [1D9320BC] [80C33E69]   CRC32
 07  100,0 [87AE9391] [3A013BE9]   CRC32
 08   99,8 [B4D157CF] [91B6EE32]   CRC32
 09  100,0 [042FEA28] [B7E6D924]   CRC32
 10  100,0 [08791A62] [3C9150A5]   CRC32
Треклист:
01. Imagine (04:50)
02. Passive (04:12)
03. People Are People (Live) (03:46)
04. Counting Bodies Like Sheep To The Rhythm Of The War Drums (05:59)
05. When The Levee Breaks (05:56)
06. By And Down (05:34)
07. 3 Libras (Live) (06:11)
08. Gravity (Live) (05:10)
09. Fiddle And The Drum (Live) (03:32)
Пpодолжительность: 00:45:09
Код:
Код:
Exact Audio Copy V1.0 beta 3 from 29. August 2011

EAC extraction logfile from 18. November 2013, 18:38

A Perfect Circle / Three Sixty Disc 2

Used drive  : ATAPI   iHES112   3   Adapter: 0  ID: 0

Read mode               : Secure
Utilize accurate stream : Yes
Defeat audio cache      : Yes
Make use of C2 pointers : No

Read offset correction                      : 702
Overread into Lead-In and Lead-Out          : No
Fill up missing offset samples with silence : Yes
Delete leading and trailing silent blocks   : No
Null samples used in CRC calculations       : Yes
Used interface                              : Native Win32 interface for Win NT & 2000
Gap handling                                : Appended to previous track

Used output format              : User Defined Encoder
Selected bitrate                : 1024 kBit/s
Quality                         : High
Add ID3 tag                     : No
Command line compressor         : C:\Program Files (x86)\Exact Audio Copy\Flac\flac.exe
Additional command line options : -8 -V -T "ARTIST=%artist%" -T "TITLE=%title%" -T "ALBUM=%albumtitle%" -T "DATE=%year%" -T "TRACKNUMBER=%tracknr1%" -T "GENRE=%genre%" -T "PERFORMER=%albuminterpret%" -T "COMPOSER=%composer%" %haslyrics%--tag-from-file=LYRICS="%lyricsfile%"%haslyrics% -T "ALBUMARTIST=%albumartist%" -T "DISCNUMBER=%cdnumber%" -T "TOTALDISCS=%totalcds%" -T "TOTALTRACKS=%numtracks%" -T "COMMENT=%comment%" %source% -o %dest%

TOC of the extracted CD

     Track |   Start  |  Length  | Start sector | End sector
    ---------------------------------------------------------
        1  |  0:00.00 |  4:49.39 |         0    |    21713
        2  |  4:49.39 |  4:11.61 |     21714    |    40599
        3  |  9:01.25 |  3:46.28 |     40600    |    57577
        4  | 12:47.53 |  5:59.00 |     57578    |    84502
        5  | 18:46.53 |  5:55.46 |     84503    |   111173
        6  | 24:42.24 |  5:33.57 |    111174    |   136205
        7  | 30:16.06 |  6:11.09 |    136206    |   164039
        8  | 36:27.15 |  5:10.12 |    164040    |   187301
        9  | 41:37.27 |  3:31.53 |    187302    |   203179

Track  1

     Filename D:\EAC Rips\01 - Imagine.wav

     Pre-gap length  0:00:02.00

     Peak level 100.0 %
     Extraction speed 4.6 X
     Track quality 99.9 %
     Test CRC 726D4891
     Copy CRC 726D4891
     Track not present in AccurateRip database
     Copy OK

Track  2

     Filename D:\EAC Rips\02 - Passive.wav

     Pre-gap length  0:00:02.05

     Peak level 100.0 %
     Extraction speed 5.9 X
     Track quality 100.0 %
     Test CRC 2B1DB539
     Copy CRC 2B1DB539
     Track not present in AccurateRip database
     Copy OK

Track  3

     Filename D:\EAC Rips\03 - People Are People (Live).wav

     Pre-gap length  0:00:01.05

     Peak level 100.0 %
     Extraction speed 5.4 X
     Track quality 99.9 %
     Test CRC 05DE6EA8
     Copy CRC 05DE6EA8
     Track not present in AccurateRip database
     Copy OK

Track  4

     Filename D:\EAC Rips\04 - Counting Bodies Like Sheep to the Rhythm of the War Drums.wav

     Pre-gap length  0:00:01.88

     Peak level 100.0 %
     Extraction speed 6.8 X
     Track quality 100.0 %
     Test CRC CBF76CB1
     Copy CRC CBF76CB1
     Track not present in AccurateRip database
     Copy OK

Track  5

     Filename D:\EAC Rips\05 - When the Levee Breaks.wav

     Peak level 100.0 %
     Extraction speed 7.7 X
     Track quality 100.0 %
     Test CRC AB41F69C
     Copy CRC AB41F69C
     Track not present in AccurateRip database
     Copy OK

Track  6

     Filename D:\EAC Rips\06 - By and Down.wav

     Pre-gap length  0:00:01.45

     Peak level 100.0 %
     Extraction speed 8.2 X
     Track quality 100.0 %
     Test CRC D4002312
     Copy CRC D4002312
     Track not present in AccurateRip database
     Copy OK

Track  7

     Filename D:\EAC Rips\07 - 3 Libras (Live).wav

     Pre-gap length  0:00:00.70

     Peak level 100.0 %
     Extraction speed 8.6 X
     Track quality 100.0 %
     Test CRC 61A7BD5F
     Copy CRC 61A7BD5F
     Track not present in AccurateRip database
     Copy OK

Track  8

     Filename D:\EAC Rips\08 - Gravity (Live).wav

     Peak level 100.0 %
     Extraction speed 8.6 X
     Track quality 100.0 %
     Test CRC 45B9E69E
     Copy CRC 45B9E69E
     Track not present in AccurateRip database
     Copy OK

Track  9

     Filename D:\EAC Rips\09 - Fiddle and the Drum (Live).wav

     Peak level 76.1 %
     Extraction speed 8.7 X
     Track quality 100.0 %
     Test CRC 6D2D36A2
     Copy CRC 6D2D36A2
     Track not present in AccurateRip database
     Copy OK

None of the tracks are present in the AccurateRip database

No errors occurred

End of status report

---- CUETools DB Plugin V2.1.3

[CTDB TOCID: k0AiCUi5N_F5EIlUUihD2kPUXpk-] disk not present in database, Submit result: k0AiCUi5N_F5EIlUUihD2kPUXpk- has been uploaded

==== Log checksum EEFB86FC30B1E6B8C6D1D8BDCCC6B1ED156EE53800C1897F0F45966D6CD2653A ====
Код:
Код:
-----------------------

DON'T MODIFY THIS FILE

-----------------------

PERFORMER: auCDtect Task Manager, ver. 1.6.0 RC1 build 1.6.0.1
Copyright (c) 2008-2010 y-soft. All rights reserved
http:/y-soft.org

ANALYZER: auCDtect: CD records authenticity detector, version 0.8.2
Copyright (c) 2004 Oleg Berngardt. All rights reserved.
Copyright (c) 2004 Alexander Djourik. All rights reserved.

FILE: A Perfect Circle - Three Sixty Disc 2.flac
  Size: 300244822 Hash: 5524E9C9C8B24E01FC805E3BB2B63E4C Accuracy: -m0
  Conclusion: CDDA 100%
  Signature: B644584DA499988D243EFF13B5C71B441257E1DF
Код:
Код:
[CUETools log; Date: 28.11.2013 14:27:04; Version: 2.1.4]
[AccurateRip ID: 000f5ad9-0071f55c-8b0a9509] disk not present in database.

Track Peak [ CRC32  ] [W/O NULL] [  LOG   ]
 --  100,0 [8E6E75D8] [2E025F28]
 01  100,0 [726D4891] [A8FF0418]   CRC32
 02  100,0 [2B1DB539] [5E8BAA41]   CRC32
 03  100,0 [05DE6EA8] [A371FA4E]   CRC32
 04  100,0 [CBF76CB1] [26D9FD22]   CRC32
 05  100,0 [AB41F69C] [311077A2]   CRC32
 06  100,0 [D4002312] [BF55F7F1]   CRC32
 07  100,0 [61A7BD5F] [56269361]   CRC32
 08  100,0 [45B9E69E] [01776916]   CRC32
 09   76,1 [6D2D36A2] [56493F46]   CRC32
Правила, инструкции, FAQ!!!
Торрент  Добавлен [16 мар 2014, 00:45] Скачать торрент Магнет ссылка
Скачать торрент
[ Размер 12.76 КБ / Просмотров 23 ]

Статус  
 
Размер  578.51 МБ
Приватный: Нет (DHT включён)
.torrent скачан  0
 


     Отправить личное сообщение
   
Страница 1 из 1
Показать сообщения за:  Поле сортировки  
Начать новую тему Ответить на тему


Сейчас этот форум просматривают: нет зарегистрированных пользователей и гости: 0


Вы не можете начинать темы
Вы не можете отвечать на сообщения
Вы не можете редактировать свои сообщения
Вы не можете удалять свои сообщения
Вы не можете добавлять вложения

Перейти:  
cron
cron