Начать новую тему Ответить на тему
Статистика раздачи
Размер: 459.65 МБ | Добавлен: 16 мар 2014, 00:48 | Скачали: 1
Сидеров: 3  [0 байт/сек]    Личеров: 0  [0 байт/сек]
Пред. тема | След. тема 

Автор
Сообщение

СообщениеДобавлено: 16 мар 2014, 00:48 

Ответить с цитатой 

A Day To Remember - Common Courtesy (2013)

Год: 2013
Страна: USA
Жанр: Melodic Hardcore, Pop-Punk
Продолжительность: 00:53:11
Издатель: INgrooves
Каталог №: B00G34XMBQ
Кодек: FLAC
Битрейт: Lossless
Источник: Собственный CD
Наличие cканов: Да
Треклист:
01 - City Of Ocala [03:29]
02 - Right Back At It Again [03:20]
03 - Sometimes You're The Hammer, Sometimes You're The Nail [04:34]
04 - Dead & Buried [03:13]
05 - Best Of Me [03:27]
06 - I'm Already Gone [04:04]
07 - Violence (Enough Is Enough) [04:01]
08 - Life @ 11 [03:22]
09 - I Surrender [03:34]
10 - Life Lessons Learned The Hard Way [02:17]
11 - End Of Me [03:58]
12 - The Document Speaks For Itself [04:43]
13 - I Remember [09:05]
14 - Leave All The Lights On [03:31]
15 - Good Things [02:59]
16 - Same Book But Never The Same Page [04:07]
#777A Day to Remember (сокр. ADTR) — это пятеро парней, сочетающих в себе задор молодости и опыт заслуженных тружеников пост-хардкор сцены. Их музыка сочетает в себе смесь хардкора и поп-панка, исполняемые как экстремальным, так и чистым вокалом.
Небольшой город Окала, штат Флорида, может вполне гордиться тем, что одна из самых ярких групп последнего времени собралась именно там. На данный момент группа выпустила 6 альбомов.
Текущий состав:
Джереми МакКиннон (Jeremy McKinnon) — вокал
Нил Вестфолл (Neil Westfall) — ритм-гитара, бэк-вокал
Кевин Скафф (Kevin Skaff) — соло-гитара, бэк-вокал
Джошуа Вудэрд (Joshua Woodard) — бас-гитара
Алекс Шэллнатт (Alex Shelnutt) — ударные
Бывшие участники:
Брэндон Робертс (Brandon Roberts) — ударные
Бобби Скраггз (Bobby Scruggs) — ударные
Том Дэнни (Tom Denney) — соло-гитара
Дискография:
And Their Name Was Treason (2005, Indianola Records)
For Those Who Have Heart (2007, Victory Records)
Homesick (2009, Victory Records)
What Separates Me from You (2010, Victory Records)
Common Courtesy (2013, INGROOVES)
+
Old Record (2008, Victory Records)
Attack Of The Killer B-Sides (2010, Victory Records)
Код:
Код:
Exact Audio Copy V1.0 beta 3 from 29. August 2011

EAC extraction logfile from 3. January 2014, 21:10

A Day To Remember / Common Courtesy

Used drive  : HL-DT-STBD-RE BT11F   Adapter: 2  ID: 0

Read mode               : Secure
Utilize accurate stream : Yes
Defeat audio cache      : Yes
Make use of C2 pointers : No

Read offset correction                      : 667
Overread into Lead-In and Lead-Out          : No
Fill up missing offset samples with silence : Yes
Delete leading and trailing silent blocks   : No
Null samples used in CRC calculations       : Yes
Used interface                              : Native Win32 interface for Win NT & 2000
Gap handling                                : Appended to previous track

Used output format              : User Defined Encoder
Selected bitrate                : 128 kBit/s
Quality                         : High
Add ID3 tag                     : No
Command line compressor         : E:\Program Files\Exact Audio Copy\Flac\flac.exe
Additional command line options : -V -8 -T "Genre=%genre%" -T "Artist=%artist%" -T "Title=%title%" -T "Album=%albumtitle%" -T "Date=%year%" -T "Tracknumber=%tracknr%" -T "Comment=%comment%" %source%

TOC of the extracted CD

     Track |   Start  |  Length  | Start sector | End sector
    ---------------------------------------------------------
        1  |  0:00.00 |  3:29.16 |         0    |    15690
        2  |  3:29.16 |  3:20.03 |     15691    |    30693
        3  |  6:49.19 |  4:34.03 |     30694    |    51246
        4  | 11:23.22 |  3:13.09 |     51247    |    65730
        5  | 14:36.31 |  3:27.58 |     65731    |    81313
        6  | 18:04.14 |  4:04.09 |     81314    |    99622
        7  | 22:08.23 |  4:01.49 |     99623    |   117746
        8  | 26:09.72 |  3:22.39 |    117747    |   132935
        9  | 29:32.36 |  3:34.13 |    132936    |   148998
       10  | 33:06.49 |  2:17.14 |    148999    |   159287
       11  | 35:23.63 |  3:57.73 |    159288    |   177135
       12  | 39:21.61 |  4:43.62 |    177136    |   198422
       13  | 44:05.48 |  9:04.69 |    198423    |   239291
       14  | 53:10.42 |  3:31.25 |    239292    |   255141
       15  | 56:41.67 |  2:59.55 |    255142    |   268621
       16  | 59:41.47 |  4:04.69 |    268622    |   286990

Track  1

     Filename E:\Music\Common Courtesy\01 City Of Ocala.wav

     Pre-gap length  0:00:02.00

     Peak level 100.0 %
     Extraction speed 2.4 X
     Track quality 100.0 %
     Test CRC 9E359AFF
     Copy CRC 9E359AFF
     Accurately ripped (confidence 5)  [286098D7]  (AR v2)
     Copy OK

Track  2

     Filename E:\Music\Common Courtesy\02 Right Back At It Again.wav

     Peak level 100.0 %
     Extraction speed 2.5 X
     Track quality 100.0 %
     Test CRC 98555B6C
     Copy CRC 98555B6C
     Accurately ripped (confidence 5)  [113FEC9B]  (AR v2)
     Copy OK

Track  3

     Filename E:\Music\Common Courtesy\03 Sometimes You're The Hammer, Sometimes You're The Nail.wav

     Peak level 100.0 %
     Extraction speed 2.9 X
     Track quality 100.0 %
     Test CRC 97A5CDD2
     Copy CRC 97A5CDD2
     Accurately ripped (confidence 5)  [FB198E44]  (AR v2)
     Copy OK

Track  4

     Filename E:\Music\Common Courtesy\04 Dead & Buried.wav

     Peak level 100.0 %
     Extraction speed 2.9 X
     Track quality 100.0 %
     Test CRC CB95F4F8
     Copy CRC CB95F4F8
     Accurately ripped (confidence 5)  [F6C89C5A]  (AR v2)
     Copy OK

Track  5

     Filename E:\Music\Common Courtesy\05 Best Of Me.wav

     Peak level 100.0 %
     Extraction speed 3.2 X
     Track quality 100.0 %
     Test CRC DA9F8305
     Copy CRC DA9F8305
     Accurately ripped (confidence 5)  [240F96D9]  (AR v2)
     Copy OK

Track  6

     Filename E:\Music\Common Courtesy\06 I'm Already Gone.wav

     Peak level 100.0 %
     Extraction speed 3.5 X
     Track quality 100.0 %
     Test CRC 36C4D1B5
     Copy CRC 36C4D1B5
     Accurately ripped (confidence 5)  [8462A094]  (AR v2)
     Copy OK

Track  7

     Filename E:\Music\Common Courtesy\07 Violence [Enough Is Enough].wav

     Peak level 100.0 %
     Extraction speed 3.2 X
     Track quality 99.9 %
     Test CRC 64B917DA
     Copy CRC 64B917DA
     Accurately ripped (confidence 5)  [F37D3694]  (AR v2)
     Copy OK

Track  8

     Filename E:\Music\Common Courtesy\08 Life @ 11.wav

     Peak level 100.0 %
     Extraction speed 3.2 X
     Track quality 99.9 %
     Test CRC 3F5605EE
     Copy CRC 3F5605EE
     Accurately ripped (confidence 5)  [10091FA8]  (AR v2)
     Copy OK

Track  9

     Filename E:\Music\Common Courtesy\09 I Surrender.wav

     Peak level 100.0 %
     Extraction speed 3.9 X
     Track quality 100.0 %
     Test CRC 17957362
     Copy CRC 17957362
     Accurately ripped (confidence 5)  [2A47021A]  (AR v2)
     Copy OK

Track 10

     Filename E:\Music\Common Courtesy\10 Life Lessons Learned The Hard Way.wav

     Peak level 100.0 %
     Extraction speed 3.7 X
     Track quality 100.0 %
     Test CRC BFE76DB4
     Copy CRC BFE76DB4
     Accurately ripped (confidence 5)  [886AB1F2]  (AR v2)
     Copy OK

Track 11

     Filename E:\Music\Common Courtesy\11 End Of Me.wav

     Peak level 100.0 %
     Extraction speed 4.2 X
     Track quality 100.0 %
     Test CRC CBD30DD4
     Copy CRC CBD30DD4
     Accurately ripped (confidence 5)  [FDAFF5C2]  (AR v2)
     Copy OK

Track 12

     Filename E:\Music\Common Courtesy\12 The Document Speaks For Itself.wav

     Peak level 100.0 %
     Extraction speed 4.0 X
     Track quality 99.9 %
     Test CRC 46A2FD9B
     Copy CRC 46A2FD9B
     Accurately ripped (confidence 5)  [7910D474]  (AR v2)
     Copy OK

Track 13

     Filename E:\Music\Common Courtesy\13  I Remember.wav

     Peak level 100.0 %
     Extraction speed 5.0 X
     Track quality 100.0 %
     Test CRC 2ED1A93E
     Copy CRC 2ED1A93E
     Accurately ripped (confidence 5)  [C04AD11B]  (AR v2)
     Copy OK

Track 14

     Filename E:\Music\Common Courtesy\14 Leave All The Lights On.wav

     Pre-gap length  0:00:01.69

     Peak level 100.0 %
     Extraction speed 4.7 X
     Track quality 100.0 %
     Test CRC 668498A4
     Copy CRC 668498A4
     Accurately ripped (confidence 5)  [B06E32E9]  (AR v2)
     Copy OK

Track 15

     Filename E:\Music\Common Courtesy\15 Good Things.wav

     Peak level 100.0 %
     Extraction speed 4.7 X
     Track quality 100.0 %
     Test CRC 852B7EED
     Copy CRC 852B7EED
     Accurately ripped (confidence 5)  [AE9AF659]  (AR v2)
     Copy OK

Track 16

     Filename E:\Music\Common Courtesy\16 Same Book But Never The Same Page.wav

     Peak level 100.0 %
     Extraction speed 5.1 X
     Track quality 100.0 %
     Test CRC C427760D
     Copy CRC C427760D
     Accurately ripped (confidence 5)  [7F00F806]  (AR v2)
     Copy OK

All tracks accurately ripped

No errors occurred

End of status report

==== Log checksum 8DA872C83F87A5196FD91DA157ED33AEE2E09758A83D5C5BFBD3D31AB16356D8 ====
Код:
Код:
-----------------------

DON'T MODIFY THIS FILE

-----------------------

PERFORMER: auCDtect Task Manager, ver. 1.6.0 RC1 build 1.6.0.1
Copyright (c) 2008-2010 y-soft. All rights reserved
http:/y-soft.org

ANALYZER: auCDtect: CD records authenticity detector, version 0.8.2
Copyright (c) 2004 Oleg Berngardt. All rights reserved.
Copyright (c) 2004 Alexander Djourik. All rights reserved.

FILE: 08 Life @ 11.flac
  Size: 26822693 Hash: F02A186AB9A2308EA611E11DECFB088E Accuracy: -m0
  Conclusion: MPEG 79%
  Signature: 40EB83F61B22023756A372F052DEC615A8DCA4D3
FILE: 07 Violence [Enough Is Enough].flac
  Size: 31558699 Hash: 02D5075EF73229E4B0A31D1853CD72D4 Accuracy: -m0
  Conclusion: CDDA 100%
  Signature: D9D8C3B57CC807CE58502CBC761D3C27D555072F
FILE: 06 I'm Already Gone.flac
  Size: 29996581 Hash: 3888ADBD230D38ADF976E863581443D2 Accuracy: -m0
  Conclusion: MPEG 99%
  Signature: 1B153F77F3AA3047A97BF8D556852868E4B76018
FILE: 05 Best Of Me.flac
  Size: 28484346 Hash: 45323ECC06C00289231B446632C2542C Accuracy: -m0
  Conclusion: MPEG 85%
  Signature: E7E4F20E30897ABD7B28CE8697DCCE4482572FD5
FILE: 04 Dead & Buried.flac
  Size: 25352910 Hash: 3871DE19C7A8BAB13433242D1705EE41 Accuracy: -m0
  Conclusion: MPEG 73%
  Signature: CB5D55D475FC998D5F959F89D72EA608E4082A08
FILE: 03 Sometimes You're The Hammer, Sometimes You're The Nail.flac
  Size: 33086553 Hash: 6302EF52237BF3C1A851C207F78D2BA4 Accuracy: -m0
  Conclusion: CDDA 100%
  Signature: 6DDFFD47634F36BBBC5384E1F8BE1167CD2D8440
FILE: 02 Right Back At It Again.flac
  Size: 25967771 Hash: 93C13854AB3864A8E9083B092150A7CE Accuracy: -m0
  Conclusion: MPEG 73%
  Signature: 3DEA0848E83E8CBD96B270DE6D4B1BD4846C0AAC
FILE: 01 City Of Ocala.flac
  Size: 27629596 Hash: 39D960514E77DF483223283BA7BA0405 Accuracy: -m0
  Conclusion: CDDA 100%
  Signature: BFD90568C0F81851ED62E9E4C975F979AB2F577A
FILE: 16 Same Book But Never The Same Page.flac
  Size: 31804652 Hash: 6A8551C3714B7577BBAE223A0719368F Accuracy: -m0
  Conclusion: CDDA 100%
  Signature: D7914F969418DEDE6A38D9F4DD1D3DE59B22A3E9
FILE: 15 Good Things.flac
  Size: 22518764 Hash: 3ACD9D3666E6C3892B1711FFD256B29E Accuracy: -m0
  Conclusion: CDDA 100%
  Signature: 065CAF5DFF09DE207593D54468A3DC0C84DE1486
FILE: 14 Leave All The Lights On.flac
  Size: 28482830 Hash: 488E1A6D631965EBE3BFAE028A539D37 Accuracy: -m0
  Conclusion: MPEG 91%
  Signature: 29D6B922D80DD881FC79F7B17F8640930C69E0A1
FILE: 13  I Remember.flac
  Size: 51674136 Hash: EB55BFD0DEDB44F9F5035E220A6B35E5 Accuracy: -m0
  Conclusion: MPEG 79%
  Signature: 50D6C66E8D7E46843F2B99E1CC0608F923F15587
FILE: 12 The Document Speaks For Itself.flac
  Size: 35386767 Hash: D6033965C1734BC423D40CF275840276 Accuracy: -m0
  Conclusion: CDDA 100%
  Signature: E11AEF336CCABA0C00E00FBDB217A2E671B8A29B
FILE: 11 End Of Me.flac
  Size: 29340623 Hash: 8C7C297346E40E37334CD13876E73A29 Accuracy: -m0
  Conclusion: CDDA 100%
  Signature: D226BD0FD51D6C23239E32621747DE0B43793EFD
FILE: 10 Life Lessons Learned The Hard Way.flac
  Size: 16885461 Hash: BAEE0D0AC73AA1EF64B071D0E64679EB Accuracy: -m0
  Conclusion: CDDA 100%
  Signature: 6166DE7B77A86D35364CBBB752C37A2993C70064
FILE: 09 I Surrender.flac
  Size: 27401096 Hash: 6943172271D7AB3AD73FCB59CBE4204D Accuracy: -m0
  Conclusion: CDDA 100%
  Signature: EA95B2C31DF92B848368A74AA5C421875D06D89A






Если вам понравился альбом, пожалуйста, купите CD, поддержите исполнителя!
Правила, инструкции, FAQ!!!
Торрент  Добавлен [16 мар 2014, 00:48] Скачать торрент Магнет ссылка
Скачать торрент
[ Размер 20.11 КБ / Просмотров 43 ]

Статус  
 
Размер  459.65 МБ
Приватный: Нет (DHT включён)
.torrent скачан  1
 


     Отправить личное сообщение
   
Страница 1 из 1
Показать сообщения за:  Поле сортировки  
Начать новую тему Ответить на тему


Сейчас этот форум просматривают: нет зарегистрированных пользователей и гости: 0


Вы не можете начинать темы
Вы не можете отвечать на сообщения
Вы не можете редактировать свои сообщения
Вы не можете удалять свои сообщения
Вы не можете добавлять вложения

Перейти:  
cron
cron