Начать новую тему Ответить на тему
Статистика раздачи
Размер: 426.38 МБ | Добавлен: 16 мар 2014, 00:41 | Скачали: 0
Сидеров: 1  [0 байт/сек]    Личеров: 0  [0 байт/сек]
Пред. тема | След. тема 

Автор
Сообщение

СообщениеДобавлено: 16 мар 2014, 00:41 

Ответить с цитатой 

311 - STER3OL1TH1C (Stereolithic) (2014)

Год: 2014
Жанр: Alternative Rock, Reggae Rock, Rap Rock, Funk Metal
Лейбл: 311 Records
Номер по каталогу: 311CD001
Страна: США
Продолжительность: 00:58:13
Тип рипа: tracks+.cue
Кодек: FLAC
Битрейт: Lossless
Дополнительно: Digital Booklet

Треклист:
01. Ebb and Flow (3:24)
02. Five of Everything (3:51)
03. Showdown (3:48)
04. Revelation of the Year (4:12)
05. Sand Dollars (3:21)
06. Boom Shanka (3:04)
07. Make it Rough (3:23)
08. The Great Divide (4:04)
09. Friday Afternoon (4:12)
10. Simple True (4:13)
11. First Dimension (3:23)
12. Made in the Shade (3:23)
13. Existential Hero (4:01)
14. The Call (3:32)
15. Tranquility (3:51)
16. Hidden Track (2:31)
Credits:
Nick Hexum - vocals, guitar, programming (1988-present)
Doug "SA" Martinez - vocals, turntables, DJ (1992-present)
Tim Mahoney - lead guitar (1991-present)
Aaron "P-Nut" Wills - bass (1988-present)
Chad Sexton - drums, percussion, programming (1988-present)

All songs written and composed by 311
Produced by Scott Ralston
Engineer: Scotch Ralston
Assistant Engineer: Giff Tripp
Mixed by Chad Sexton & Scotch Ralston
Mastered by Joe Gastwirt
Cover Art by Sonny Kay
Band Photo by Brian Bowen-Smith

Recorded at The Hive (Los Angeles), Holy Gralien (Ojai), Mountain Top Studios (Fillmore), andPangea Studios (Topanga)
Mixed at The Hive
Mastred at Gastwirt Mastering

Release Notes:
Ветераны американской рок сцены реггей-рок группа 311 после длительного трехлетнего перерыва выпустили свой ​​новый студийный альбом Stereolithic, который вышел 11 марта. Это какое-то странное совпадение - минуло 311 дней с их концерта в Новом Орлеане, штат Луизиана. На диске Stereolithic прекрасная коллекция из 15 новых треков, превосходящих по мнению музыкальных критиков песни, изданные в 2011 году на предыдущем альбоме Universal Pulse. Группа 311 представили свой новый видеоклип на песню «Five of Everything», показывающий моменты работы над новой пластинкой.

Знаменитый американский рок-коллектив 311 был сформирован в 1988 году в Омахе, штат Небраска. Участники группы были знакомы еще со школы. Их объединяла любовь к музыке, и однажды они решили попытать счастья на музыкальном поприще. Поначалу дела шли не очень удачно, однако это не останавливало юных рокеров. Выступления в местных барах и небольших клубах шли им на пользу, ведь это приносило такой необходимый опыт. К 1991 году гитарист Джим Уотсон покинул группу, но вскоре ребята нашли ему замену – к коллективу присоединился Тим Махоуни. Чуть позже пришел вокалист и диджей Дуглас «S.A.» Мартинез. Так, вместе с Чадом Секстоном, Ником Гексамом и Аараном Уилсом они образовали рок-банду 311 в том виде, в котором она стала известна меломанам по всему миру.

Дебютная пластинка 311 вышла в 1993 году и получила вполне логичное название Music. Музыкантам сразу же удалось привлечь к себе внимание слушателей. Стоит отметить, что на Западном Побережье у 311 уже были свои поклонники – многочисленные выступления не прошли даром. Теперь нужно было покорить другие части США, да и вообще весь мир. Кто знает, действительно были ли у рокеров такие планы, но, как бы то ни было, покорить мир им удалось. Уже спустя год 311 выпустили второй альбом Grassroots (1994), а в 1995 году свет увидела одноименная пластинка 311. Кстати, именно на ней были представлены такие проверенные временем хиты, как All Mixed Up и Don't Stay Home. Студийная работа 1997 года Transistor оказалась не менее интересной, чем ее предшественники, и получила платиновый статус – меломаны по достоинству оценили фирменный и легкоузнаваемый стиль 311. Рокеры очень удачно совмещали в своем творчестве разные жанры, от фанк-рока и фанк-метала до регги и даже джаз-фьюжна. Жанры разные и порой экзотические, а потому такие интересные для слушателей. Это музыкальное разнообразие стало одной их причин, почему группа смогла добиться такого успеха и признания.

Soundsystem (1999) порадовал поклонников новыми хитовыми композициями: Come Original, Flowing и многие другие заняли достойное место в дискографии рокеров. Удивительно, но вам вряд ли удастся найти у 311 проходные работы – все сделано очень качественно и, самое главное, с душой. 311 в своей музыке совмещает много стилей. Обычно их относят к альтернативному року, но в их песнях присутствуют такие направления как рэп-рок, рэп-метал, фанк-рок, фанк-метал, ска-панк, регги и джаз-фьюжн. Традиционные хитросплетения стилей, плотный, сочный гитарный звук, идеальное распределение цифровых эффектов – вот за что 311 так полюбились слушателям во всех уголках земного шара. В 2011 году состоялся релиз десятого студийного альбома 311 - Universal Pulse. На настоящий момент группа выпустила одиннадцать студийных альбомов, один «живой альбом», пять мини-альбомов, четыре альбома-компиляции и четыре DVD. На 2011 год группа продала более 8,5 миллионов альбомов в США. За свою двадцатипятилетнюю карьеру рокеры не потеряли интереса к музыке, и их желание создавать новые песни реализуется в нотах и мелодиях. Квинтет остается верным своему стилю, так что в качестве STER3OL1TH1C сомневаться не приходится. Несомненно, эта пластинка порадует всех ценителей качественного звука и честного творчества – ведь это 311!
Код:
Код:
Exact Audio Copy V1.0 beta 3 from 29. August 2011

EAC extraction logfile from 10. March 2014, 21:18

311 / Stereolithic

Used drive  : HL-DT-STBD-RE  WH10LS30   Adapter: 0  ID: 1

Read mode               : Secure
Utilize accurate stream : Yes
Defeat audio cache      : Yes
Make use of C2 pointers : No

Read offset correction                      : 667
Overread into Lead-In and Lead-Out          : No
Fill up missing offset samples with silence : Yes
Delete leading and trailing silent blocks   : No
Null samples used in CRC calculations       : Yes
Used interface                              : Native Win32 interface for Win NT & 2000
Gap handling                                : Appended to previous track

Used output format              : User Defined Encoder
Selected bitrate                : 1024 kBit/s
Quality                         : High
Add ID3 tag                     : No
Command line compressor         : C:\Program Files (x86)\Exact Audio Copy\Flac\flac.exe
Additional command line options : -8 -V -T "ARTIST=%artist%" -T "TITLE=%title%" -T "ALBUM=%albumtitle%" -T "DATE=%year%" -T "TRACKNUMBER=%tracknr%" -T "GENRE=%genre%" -T "PERFORMER=%albuminterpret%" -T "COMPOSER=%composer%" %haslyrics%--tag-from-file=LYRICS="%lyricsfile%"%haslyrics% -T "ALBUMARTIST=%albumartist%" -T "DISCNUMBER=%cdnumber%" -T "TOTALDISCS=%totalcds%" -T "TOTALTRACKS=%numtracks%" -T "COMMENT=%comment%" %source% -o %dest%

TOC of the extracted CD

     Track |   Start  |  Length  | Start sector | End sector
    ---------------------------------------------------------
        1  |  0:00.00 |  3:23.56 |         0    |    15280
        2  |  3:23.56 |  3:50.44 |     15281    |    32574
        3  |  7:14.25 |  3:48.02 |     32575    |    49676
        4  | 11:02.27 |  4:11.39 |     49677    |    68540
        5  | 15:13.66 |  3:21.08 |     68541    |    83623
        6  | 18:34.74 |  3:04.20 |     83624    |    97443
        7  | 21:39.19 |  3:22.46 |     97444    |   112639
        8  | 25:01.65 |  4:04.27 |    112640    |   130966
        9  | 29:06.17 |  4:12.12 |    130967    |   149878
       10  | 33:18.29 |  4:12.66 |    149879    |   168844
       11  | 37:31.20 |  3:22.39 |    168845    |   184033
       12  | 40:53.59 |  3:23.32 |    184034    |   199290
       13  | 44:17.16 |  4:00.64 |    199291    |   217354
       14  | 48:18.05 |  3:31.59 |    217355    |   233238
       15  | 51:49.64 |  3:50.67 |    233239    |   250555
       16  | 55:40.56 |  2:30.71 |    250556    |   261876

Track  1

     Filename C:\EACRips\01 Ebb and Flow.wav

     Pre-gap length  0:00:02.00

     Peak level 98.8 %
     Extraction speed 1.0 X
     Track quality 100.0 %
     Test CRC BB527917
     Copy CRC BB527917
     Track not present in AccurateRip database
     Copy OK

Track  2

     Filename C:\EACRips\02 Five of Everything.wav

     Peak level 98.8 %
     Extraction speed 1.2 X
     Track quality 100.0 %
     Test CRC 2FEBCA36
     Copy CRC 2FEBCA36
     Track not present in AccurateRip database
     Copy OK

Track  3

     Filename C:\EACRips\03 Showdown.wav

     Peak level 98.8 %
     Extraction speed 1.3 X
     Track quality 100.0 %
     Test CRC DC0D04A3
     Copy CRC DC0D04A3
     Track not present in AccurateRip database
     Copy OK

Track  4

     Filename C:\EACRips\04 Revelation of the Year.wav

     Peak level 98.8 %
     Extraction speed 1.4 X
     Track quality 100.0 %
     Test CRC E92FC219
     Copy CRC E92FC219
     Track not present in AccurateRip database
     Copy OK

Track  5

     Filename C:\EACRips\05 Sand Dollars.wav

     Peak level 98.8 %
     Extraction speed 1.4 X
     Track quality 100.0 %
     Test CRC CBC2F981
     Copy CRC CBC2F981
     Track not present in AccurateRip database
     Copy OK

Track  6

     Filename C:\EACRips\06 Boom Shanka.wav

     Peak level 98.8 %
     Extraction speed 1.3 X
     Track quality 99.9 %
     Test CRC 4E71D63B
     Copy CRC 4E71D63B
     Track not present in AccurateRip database
     Copy OK

Track  7

     Filename C:\EACRips\07 Make it Rough.wav

     Peak level 98.8 %
     Extraction speed 1.6 X
     Track quality 100.0 %
     Test CRC 42E98945
     Copy CRC 42E98945
     Track not present in AccurateRip database
     Copy OK

Track  8

     Filename C:\EACRips\08 The Great Divide.wav

     Peak level 98.8 %
     Extraction speed 1.5 X
     Track quality 99.9 %
     Test CRC E8356A7C
     Copy CRC E8356A7C
     Track not present in AccurateRip database
     Copy OK

Track  9

     Filename C:\EACRips\09 Friday Afternoon.wav

     Peak level 98.8 %
     Extraction speed 1.8 X
     Track quality 100.0 %
     Test CRC 50AF9E04
     Copy CRC 50AF9E04
     Track not present in AccurateRip database
     Copy OK

Track 10

     Filename C:\EACRips\10 Simple True.wav

     Peak level 98.8 %
     Extraction speed 1.9 X
     Track quality 100.0 %
     Test CRC 15F142E7
     Copy CRC 15F142E7
     Track not present in AccurateRip database
     Copy OK

Track 11

     Filename C:\EACRips\11 First Dimension.wav

     Peak level 98.8 %
     Extraction speed 1.6 X
     Track quality 99.9 %
     Test CRC F66753E4
     Copy CRC F66753E4
     Track not present in AccurateRip database
     Copy OK

Track 12

     Filename C:\EACRips\12 Made in the Shade.wav

     Peak level 98.8 %
     Extraction speed 1.9 X
     Track quality 100.0 %
     Test CRC ACD86758
     Copy CRC ACD86758
     Track not present in AccurateRip database
     Copy OK

Track 13

     Filename C:\EACRips\13 Existential Hero.wav

     Peak level 98.8 %
     Extraction speed 2.0 X
     Track quality 100.0 %
     Test CRC F2E18088
     Copy CRC F2E18088
     Track not present in AccurateRip database
     Copy OK

Track 14

     Filename C:\EACRips\14 The Call.wav

     Peak level 98.8 %
     Extraction speed 1.8 X
     Track quality 99.9 %
     Test CRC 2C89EDFC
     Copy CRC 2C89EDFC
     Track not present in AccurateRip database
     Copy OK

Track 15

     Filename C:\EACRips\15 Tranquility.wav

     Peak level 98.8 %
     Extraction speed 2.2 X
     Track quality 100.0 %
     Test CRC C4A0FB7D
     Copy CRC C4A0FB7D
     Track not present in AccurateRip database
     Copy OK

Track 16

     Filename C:\EACRips\16 Hidden Track.wav

     Pre-gap length  0:00:06.02

     Peak level 21.4 %
     Extraction speed 2.0 X
     Track quality 100.0 %
     Test CRC 217A7E13
     Copy CRC 217A7E13
     Track not present in AccurateRip database
     Copy OK

None of the tracks are present in the AccurateRip database

No errors occurred

End of status report

---- CUETools DB Plugin V2.1.3

[CTDB TOCID: OaymOa0kyLbrqGQ5lcedkmvWi00-] found, Submit result: OaymOa0kyLbrqGQ5lcedkmvWi00- has been confirmed
[496e08a9] (1/1) Accurately ripped

==== Log checksum 0750ACC6ABFA6BAB39A26F6E30286137B916D3B45F3C1CF725B8DA3B6008B5FC ====
Код:
Код:
PERFORMER: auCDtect Task Manager, ver. 1.6.0 RC1 build 1.6.0.1
Copyright (c) 2008-2010 y-soft. All rights reserved
http:/y-soft.org

ANALYZER: auCDtect: CD records authenticity detector, version 0.8.2
Copyright (c) 2004 Oleg Berngardt. All rights reserved.
Copyright (c) 2004 Alexander Djourik. All rights reserved.

FILE: 16 Hidden Track.flac
  Size: 8664179 Hash: 30380DE7C8536B49C2A2C89964C38055 Accuracy: -m0
  Conclusion: CDDA 100%
  Signature: 0EC46B7A7D2446F5A009CC5C914C8A1F57DFFBE3
FILE: 15 Tranquility.flac
  Size: 27122398 Hash: D8D93561565C5DE661D8A78FD6E847C8 Accuracy: -m0
  Conclusion: CDDA 100%
  Signature: BDA7AB61375B9BC3EB036A6AA51426AAF6187985
FILE: 14 The Call.flac
  Size: 27743141 Hash: 4E9491E94E16B453AC8ED18752C50AD1 Accuracy: -m0
  Conclusion: CDDA 100%
  Signature: DD53F4880DDB3CE68072654EDC11C9EAEDA08622
FILE: 13 Existential Hero.flac
  Size: 31544938 Hash: A2C58742F3B6C4ECF3051AC34E260B55 Accuracy: -m0
  Conclusion: CDDA 100%
  Signature: AEACFC4FB2443B6D245D51174EF0E83494393354
FILE: 12 Made in the Shade.flac
  Size: 24459260 Hash: 9B367803F82A89F85119D6CC451D3931 Accuracy: -m0
  Conclusion: CDDA 100%
  Signature: 52813DD1703658778D04EE19215145FB3CD832F8
FILE: 11 First Dimension.flac
  Size: 26995782 Hash: B4C5C2E1130624A03001392C4178105C Accuracy: -m0
  Conclusion: CDDA 99%
  Signature: 827F2EEA45B11BD7A5BB93C5F92CBC242C31E0B0
FILE: 10 Simple True.flac
  Size: 29361998 Hash: 8EB5C04816E7406917F5C7C6E462B056 Accuracy: -m0
  Conclusion: CDDA 100%
  Signature: 6CA8FC3EBB0ECC27299CAD0CCC678BBD1E8FB339
FILE: 09 Friday Afternoon.flac
  Size: 27329420 Hash: ECCDFADDA2F067A6B9AF227130D2575F Accuracy: -m0
  Conclusion: CDDA 100%
  Signature: AC0FB4C9D34B54774257BC8D83D27837D1CC19BF
FILE: 08 The Great Divide.flac
  Size: 30890857 Hash: C24629A042D2CEFEC22F2EEC5341F993 Accuracy: -m0
  Conclusion: CDDA 100%
  Signature: 648754CB73E24066C0A72119AD783AF562614FF7
FILE: 07 Make it Rough.flac
  Size: 26325897 Hash: 33A7694A622EE52F2EB4CD2E191E5B35 Accuracy: -m0
  Conclusion: CDDA 100%
  Signature: 47963F675E02EF187B8FAC78ABA3865112E9E172
FILE: 06 Boom Shanka.flac
  Size: 24898932 Hash: D1EEAC994EAB6126C42BCE9D39E4A7E2 Accuracy: -m0
  Conclusion: CDDA 100%
  Signature: DB73FEB09B246A531CA7F490EB4BB9FCF68B4E7C
FILE: 05 Sand Dollars.flac
  Size: 25170217 Hash: 3ABEB3C636B415629A9499D4D11A8C7A Accuracy: -m0
  Conclusion: CDDA 100%
  Signature: 95260876513A665959DEA2C13A08A5B6DE78F24F
FILE: 04 Revelation of the Year.flac
  Size: 31317705 Hash: 818DB0115920A90E45F43BD19977550B Accuracy: -m0
  Conclusion: CDDA 100%
  Signature: 0CBC59073BAD85C60F54A1B80D4754474A8097DA
FILE: 03 Showdown.flac
  Size: 27865933 Hash: 72C69F3A8FDBD36FA6C143EA683A2255 Accuracy: -m0
  Conclusion: CDDA 100%
  Signature: F5B70258100A87DE407945A423A865186823EDFD
FILE: 02 Five of Everything.flac
  Size: 30746226 Hash: 35615F093133C5598791EB3DEED2E2F7 Accuracy: -m0
  Conclusion: CDDA 100%
  Signature: 4CB8A2D10AA8E9D44AA3C82AC70963D3886785C9
FILE: 01 Ebb and Flow.flac
  Size: 27316150 Hash: 07614FCC1E83D41CB85969E6EB05EF36 Accuracy: -m0
  Conclusion: CDDA 100%
  Signature: F045221C777F1B3BECCD7126A3D3C9D8054A9AE6
Правила, инструкции, FAQ!!!
Торрент  Добавлен [16 мар 2014, 00:41] Скачать торрент Магнет ссылка
Скачать торрент
[ Размер 18.6 КБ / Просмотров 36 ]

Статус  
 
Размер  426.38 МБ
Приватный: Нет (DHT включён)
.torrent скачан  0
 


     Отправить личное сообщение
   
Страница 1 из 1
Показать сообщения за:  Поле сортировки  
Начать новую тему Ответить на тему


Сейчас этот форум просматривают: нет зарегистрированных пользователей и гости: 0


Вы не можете начинать темы
Вы не можете отвечать на сообщения
Вы не можете редактировать свои сообщения
Вы не можете удалять свои сообщения
Вы не можете добавлять вложения

Перейти:  
cron
cron