Начать новую тему Ответить на тему
Статистика раздачи
Размер: 721.6 МБ | Добавлен: 16 мар 2014, 00:45 | Скачали: 0
Сидеров: 2  [0 байт/сек]    Личеров: 2  [0 байт/сек]
Пред. тема | След. тема 

Автор
Сообщение

СообщениеДобавлено: 16 мар 2014, 00:45 

Ответить с цитатой 

30 Seconds To Mars - 2 Albums (2002-2005)

Год: 2002-2005
Жанр: Rock, Alternative
Страна: США
Официальный сайт: thirtysecondstomars.com

Аудио кодек: FLAC
Битрейт аудио: Lossless
Продолжительность: 01:52:52
#777Дата выхода: 13 августа 2002 года.
Лейбл: Immortal Records
Продолжительность: 00:53:12

Треклист:
01. Capricorn (A Brand New Name) (3:53)
02. Edge of the Earth (4:38)
03. Fallen (4:59)
04. Oblivion (3:29)
05. Buddha for Mary (5:45)
06. Echelon (5:50)
07. Welcome to the Universe (2:40)
08. The Mission (4:05)
09. End of the Beginning (4:40)
10. 93 Million Miles (5:20)
11. Year Zero (7:54)
12. The Struggle (Hidden Track) *Начинается на 362 секунде песни Year Zero
Код:
Код:
EAC extraction logfile from 11. June 2006, 12:59 for CD
30 Seconds To Mars / 30 Seconds To Mars

Used drive  : HL-DT-STRW/DVD GCC-4240N   Adapter: 1  ID: 0
Read mode   : Secure with NO C2, accurate stream, disable cache
Read offset correction : 0
Overread into Lead-In and Lead-Out : No

Used output format : C:\Program Files\FLAC\flac.exe   (User Defined Encoder)
                     128 kBit/s
                     Additional command line options : -V -8 -T "artist=%a" -T "title=%t" -T "album=%g" -T "date=%y" -T "tracknumber=%n" -T "genre=%m" %s

Other options      :
    Fill up missing offset samples with silence : Yes
    Delete leading and trailing silent blocks : No
    Native Win32 interface for Win NT & 2000

Track  1
     Filename C:\Documents and Settings\Mark Evans\My Documents\C--Ripped\Burn-Temp\01 - Capricorn (A Brand New Name).wav

     Pre-gap length  0:00:02.00

     Peak level 100.0 %
     Track quality 100.0 %
     Test CRC EE487196
     Copy CRC EE487196
     Copy OK

Track  2
     Filename C:\Documents and Settings\Mark Evans\My Documents\C--Ripped\Burn-Temp\02 - Edge of the Earth.wav

     Pre-gap length  0:00:02.00

     Peak level 98.8 %
     Track quality 100.0 %
     Test CRC 38B13DD7
     Copy CRC 38B13DD7
     Copy OK

Track  3
     Filename C:\Documents and Settings\Mark Evans\My Documents\C--Ripped\Burn-Temp\03 - Fallen.wav

     Pre-gap length  0:00:02.00

     Peak level 100.0 %
     Track quality 100.0 %
     Test CRC EBA17606
     Copy CRC EBA17606
     Copy OK

Track  4
     Filename C:\Documents and Settings\Mark Evans\My Documents\C--Ripped\Burn-Temp\04 - Oblivion.wav

     Pre-gap length  0:00:02.00

     Peak level 98.8 %
     Track quality 99.9 %
     Test CRC DF938D44
     Copy CRC DF938D44
     Copy OK

Track  5
     Filename C:\Documents and Settings\Mark Evans\My Documents\C--Ripped\Burn-Temp\05 - Buddha for Mary.wav

     Pre-gap length  0:00:02.00

     Peak level 98.8 %
     Track quality 100.0 %
     Test CRC F9564987
     Copy CRC F9564987
     Copy OK

Track  6
     Filename C:\Documents and Settings\Mark Evans\My Documents\C--Ripped\Burn-Temp\06 - Echelon.wav

     Pre-gap length  0:00:02.00

     Peak level 98.8 %
     Track quality 100.0 %
     Test CRC 734CCAE7
     Copy CRC 734CCAE7
     Copy OK

Track  7
     Filename C:\Documents and Settings\Mark Evans\My Documents\C--Ripped\Burn-Temp\07 - Welcome to the Universe.wav

     Pre-gap length  0:00:02.00

     Peak level 98.8 %
     Track quality 100.0 %
     Test CRC EFDD24C1
     Copy CRC EFDD24C1
     Copy OK

Track  8
     Filename C:\Documents and Settings\Mark Evans\My Documents\C--Ripped\Burn-Temp\08 - The Mission.wav

     Pre-gap length  0:00:02.00

     Peak level 100.0 %
     Track quality 100.0 %
     Test CRC 8F74A024
     Copy CRC 8F74A024
     Copy OK

Track  9
     Filename C:\Documents and Settings\Mark Evans\My Documents\C--Ripped\Burn-Temp\09 - End of the Beginning.wav

     Pre-gap length  0:00:02.00

     Peak level 100.0 %
     Track quality 99.9 %
     Test CRC 7F4637AA
     Copy CRC 7F4637AA
     Copy OK

Track 10
     Filename C:\Documents and Settings\Mark Evans\My Documents\C--Ripped\Burn-Temp\10 - 93 Million Miles.wav

     Pre-gap length  0:00:02.00

     Peak level 98.8 %
     Track quality 100.0 %
     Test CRC 27C32B2F
     Copy CRC 27C32B2F
     Copy OK

Track 11
     Filename C:\Documents and Settings\Mark Evans\My Documents\C--Ripped\Burn-Temp\11 - Year Zero.wav

     Pre-gap length  0:00:02.00

     Peak level 98.8 %
     Track quality 100.0 %
     Test CRC E808943B
     Copy CRC E808943B
     Copy OK

No errors occured

End of status report
Код:
Код:
-----------------------

DON'T MODIFY THIS FILE

-----------------------

PERFORMER: auCDtect Task Manager, ver. 1.6.0 RC1 build 1.6.0.1
Copyright (c) 2008-2010 y-soft. All rights reserved
http:/y-soft.org

ANALYZER: auCDtect: CD records authenticity detector, version 0.8.2
Copyright (c) 2004 Oleg Berngardt. All rights reserved.
Copyright (c) 2004 Alexander Djourik. All rights reserved.

FILE: 11-30_Seconds_to_Mars-Year_Zero.flac
  Size: 50669914 Hash: 6E47C5BBF38466D7396AA46BF5AB607B Accuracy: -m0
  Conclusion: CDDA 100%
  Signature: F35CE2A7F0E98EA1C432A3F7E1DAB81A755528DD
FILE: 10-30_Seconds_to_Mars-93_Million_Miles.flac
  Size: 39894553 Hash: 91F707C48CD3E2211308B384AE2E1325 Accuracy: -m0
  Conclusion: CDDA 100%
  Signature: BE27CA1E503F5D367E1052B06AB9A9F783A079E6
FILE: 09-30_Seconds_to_Mars-End_of_The_Beginning.flac
  Size: 35752999 Hash: 5A6C56266B376DB1A927944F97DADDD6 Accuracy: -m0
  Conclusion: CDDA 100%
  Signature: 0E8A52865C161A319CC9D9F5A7891E962C8BE797
FILE: 08-30_Seconds_to_Mars-The_Mission.flac
  Size: 29537053 Hash: FF2FA757CCA1415A497DA7FE4DC46B99 Accuracy: -m0
  Conclusion: CDDA 100%
  Signature: 8C7E530BB845457B021EE747B00B6FB44F075A4E
FILE: 07-30_Seconds_to_Mars-Welcome_to_The_Universe.flac
  Size: 19366194 Hash: 850E8E0EE799ECF076970B1312FD7CBC Accuracy: -m0
  Conclusion: CDDA 100%
  Signature: 62BD3FF7F304BC4403D50FBEBC0F441DF748874D
FILE: 06-30_Seconds_to_Mars-Echelon.flac
  Size: 43557989 Hash: C8BE289028E77641D7AEF632CE22B6DD Accuracy: -m0
  Conclusion: CDDA 100%
  Signature: B268508AA2A4D206FD4B0BBEA75F127B57EF46A7
FILE: 05-30_Seconds_to_Mars-Buddha_For_Mary.flac
  Size: 41891198 Hash: A979000424FDD387A864ED49EB28434C Accuracy: -m0
  Conclusion: CDDA 100%
  Signature: B31B00B619A480C688B34131E291DE29A22DB9D3
FILE: 04-30_Seconds_to_Mars-Oblivion.flac
  Size: 25560663 Hash: 39A6680917C9811C247D7BCF36476D3F Accuracy: -m0
  Conclusion: CDDA 100%
  Signature: FC64FB25BF422E64FD071C4C8D2CE23BB390201F
FILE: 03-30_Seconds_to_Mars-Fallen.flac
  Size: 37657405 Hash: 1B2994F5ADC5D199DAF0F4334F760356 Accuracy: -m0
  Conclusion: CDDA 100%
  Signature: A5A88CE56824CC5FF26BF03FA961778061DA22AA
FILE: 02-30_Seconds_to_Mars-Edge_of_The_Earth.flac
  Size: 37992535 Hash: 39905289B9C7E6DFA85EB9FC15BB3ED4 Accuracy: -m0
  Conclusion: CDDA 100%
  Signature: 9FB0E592CED665E45B35E665EE7E1FB45E22E8BF
FILE: 01-30_Seconds_to_Mars-Capricorn_(A_Brand_New_Name).flac
  Size: 30567987 Hash: CCF80091082FC6B2A2C2A29CFAD3B3CC Accuracy: -m0
  Conclusion: CDDA 100%
  Signature: 2E95473340F1ADD882FC842752B2886AB66981F8
#777Дата выхода: 16 августа 2005 года.
Лейбл: Virgin Records
Продолжительность: 00:59:40

Треклист:
01. Attack (3:09)
02. A Beautiful Lie (4:05)
03. The Kill (3:51)
04. Was It a Dream? (4:15)
05. The Fantasy (4:29)
06. Savior (3:24)
07. From Yesterday (4:07)
08. The Story (3:55)
09. R-Evolve (3:59)
10. A Modern Myth (14:14)
11. Battle of One (Hidden Track) (2:46)
12. Hunter (Hidden Track) (3:53)
13. The Kill (Rebirth) (Bonus Track) (3:40)
Код:
Код:
EAC extraction logfile from 28. December 2006, 14:26 for CD
30 Seconds to Mars / A Beautiful Lie (Deluxe Edition)

Used drive  : PIONEER DVD-RW  DVR-111D   Adapter: 3  ID: 0
Read mode   : Secure with NO C2, accurate stream, disable cache
Read offset correction : 48
Overread into Lead-In and Lead-Out : No

Used output format : C:\Program Files\FLAC\flac.exe   (User Defined Encoder)
                     128 kBit/s
                     Additional command line options : -V -8 -T "artist=%a" -T "title=%t" -T "album=%g" -T "date=%y" -T "tracknumber=%n" -T "genre=%m" %s

Other options      :
    Fill up missing offset samples with silence : Yes
    Delete leading and trailing silent blocks : No
    Native Win32 interface for Win NT & 2000

Track  1
     Filename Z:\-= Music =-\-= FLAC Albums =-\30 Seconds to Mars - A Beautiful Lie (Deluxe Edition)\01-Attack.wav

     Pre-gap length  0:00:02.00

     Peak level 98.8 %
     Track quality 99.9 %
     Test CRC 3170A769
     Copy CRC 3170A769
     Copy OK

Track  2
     Filename Z:\-= Music =-\-= FLAC Albums =-\30 Seconds to Mars - A Beautiful Lie (Deluxe Edition)\02-A_Beautiful_Lie.wav

     Peak level 98.8 %
     Track quality 100.0 %
     Test CRC C181D1C1
     Copy CRC C181D1C1
     Copy OK

Track  3
     Filename Z:\-= Music =-\-= FLAC Albums =-\30 Seconds to Mars - A Beautiful Lie (Deluxe Edition)\03-The_Kill.wav

     Peak level 98.8 %
     Track quality 99.9 %
     Test CRC 42A7202D
     Copy CRC 42A7202D
     Copy OK

Track  4
     Filename Z:\-= Music =-\-= FLAC Albums =-\30 Seconds to Mars - A Beautiful Lie (Deluxe Edition)\04-Was_It_A_Dream_.wav

     Peak level 98.8 %
     Track quality 100.0 %
     Test CRC 5288725D
     Copy CRC 5288725D
     Copy OK

Track  5
     Filename Z:\-= Music =-\-= FLAC Albums =-\30 Seconds to Mars - A Beautiful Lie (Deluxe Edition)\05-The_Fantasy.wav

     Peak level 98.8 %
     Track quality 100.0 %
     Test CRC 398C0658
     Copy CRC 398C0658
     Copy OK

Track  6
     Filename Z:\-= Music =-\-= FLAC Albums =-\30 Seconds to Mars - A Beautiful Lie (Deluxe Edition)\06-Savior.wav

     Peak level 98.8 %
     Track quality 100.0 %
     Test CRC C4ACDA49
     Copy CRC C4ACDA49
     Copy OK

Track  7
     Filename Z:\-= Music =-\-= FLAC Albums =-\30 Seconds to Mars - A Beautiful Lie (Deluxe Edition)\07-From_Yesterday.wav

     Peak level 97.8 %
     Track quality 100.0 %
     Test CRC 4BB23AE7
     Copy CRC 4BB23AE7
     Copy OK

Track  8
     Filename Z:\-= Music =-\-= FLAC Albums =-\30 Seconds to Mars - A Beautiful Lie (Deluxe Edition)\08-The_Story.wav

     Peak level 98.8 %
     Track quality 100.0 %
     Test CRC 6C46BE38
     Copy CRC 6C46BE38
     Copy OK

Track  9
     Filename Z:\-= Music =-\-= FLAC Albums =-\30 Seconds to Mars - A Beautiful Lie (Deluxe Edition)\09-R-Evolve.wav

     Peak level 98.8 %
     Track quality 100.0 %
     Test CRC ACCAA869
     Copy CRC ACCAA869
     Copy OK

Track 10
     Filename Z:\-= Music =-\-= FLAC Albums =-\30 Seconds to Mars - A Beautiful Lie (Deluxe Edition)\10-A_Modern_Myth.wav

     Peak level 98.8 %
     Track quality 100.0 %
     Test CRC D65404D4
     Copy CRC D65404D4
     Copy OK

Track 11
     Filename Z:\-= Music =-\-= FLAC Albums =-\30 Seconds to Mars - A Beautiful Lie (Deluxe Edition)\11-Battle_of_One.wav

     Peak level 98.8 %
     Track quality 100.0 %
     Test CRC 8C5059CF
     Copy CRC 8C5059CF
     Copy OK

Track 12
     Filename Z:\-= Music =-\-= FLAC Albums =-\30 Seconds to Mars - A Beautiful Lie (Deluxe Edition)\12-Hunter.wav

     Peak level 98.8 %
     Track quality 100.0 %
     Test CRC 3D6BF355
     Copy CRC 3D6BF355
     Copy OK

Track 13
     Filename Z:\-= Music =-\-= FLAC Albums =-\30 Seconds to Mars - A Beautiful Lie (Deluxe Edition)\13-The_Kill_(Rebirth).wav

     Peak level 99.6 %
     Track quality 100.0 %
     Test CRC 1F3A7E2E
     Copy CRC 1F3A7E2E
     Copy OK

No errors occured

End of status report
Код:
Код:
-----------------------

DON'T MODIFY THIS FILE

-----------------------

PERFORMER: auCDtect Task Manager, ver. 1.6.0 RC1 build 1.6.0.1
Copyright (c) 2008-2010 y-soft. All rights reserved
http:/y-soft.org

ANALYZER: auCDtect: CD records authenticity detector, version 0.8.2
Copyright (c) 2004 Oleg Berngardt. All rights reserved.
Copyright (c) 2004 Alexander Djourik. All rights reserved.

FILE: 13-The_Kill_(Rebirth).flac
  Size: 29309714 Hash: 92DCEF1D1839947D0D77F0BBC94C5BD5 Accuracy: -m0
  Conclusion: CDDA 100%
  Signature: 9BC0C054331FDDB2B5AE01FF0DFC02F34C83FA1F
FILE: 12-Hunter.flac
  Size: 26340446 Hash: 71E276E28847C732AAAF0636547313C8 Accuracy: -m0
  Conclusion: CDDA 100%
  Signature: AC014A491E83CA772C7139EAC7A716F3FAA4D454
FILE: 11-Battle_of_One.flac
  Size: 21305565 Hash: 2BD0B69D9393946787C4EAE1420B1AEA Accuracy: -m0
  Conclusion: CDDA 99%
  Signature: 631EC83244B14B44FCCD78A36DFB53CB5D03DFC7
FILE: 10-A_Modern_Myth.flac
  Size: 30401822 Hash: 3EABADB972BD29109120CF86CDEBC678 Accuracy: -m0
  Conclusion: MPEG 95%
  Signature: 6E1623F9B2AB01BE8624885256A5B3FB5D6B64F8
FILE: 09-R-Evolve.flac
  Size: 26455461 Hash: 82AD9A09722EF0113E5F65DD2034BE7F Accuracy: -m0
  Conclusion: CDDA 100%
  Signature: 3C4735272A8F5561AD67B4614418701C14EBEEF0
FILE: 08-The_Story.flac
  Size: 26504524 Hash: 1ADEF4422A039EA5FC353F7F1B1B6309 Accuracy: -m0
  Conclusion: CDDA 100%
  Signature: 87862CF24DEBFEE86D99C7C66E2578C75B34BCB8
FILE: 07-From_Yesterday.flac
  Size: 30831735 Hash: 44CBA156141D4E9AC7EB767F41AC6439 Accuracy: -m0
  Conclusion: CDDA 100%
  Signature: 9BC8326B310E1AF560494243A33CCC593BDEFF3E
FILE: 06-Savior.flac
  Size: 25301821 Hash: 4E79CFC31E52E7D603F87EB652A51FF9 Accuracy: -m0
  Conclusion: CDDA 99%
  Signature: 6BE4BF8BE086F068C2395F82144D4AB1F0F8C310
FILE: 05-The_Fantasy.flac
  Size: 33117943 Hash: 3592357D56356ED9F3015FAD3E2F985D Accuracy: -m0
  Conclusion: CDDA 100%
  Signature: 8CE93126730C5C9DCCFB79E169AAA672C6BAB379
FILE: 04-Was_It_A_Dream_.flac
  Size: 30193894 Hash: D1422DB324170E6BD48D239656A2B441 Accuracy: -m0
  Conclusion: CDDA 100%
  Signature: B8607555EE866689C14BB9009EC9834220367C39
FILE: 03-The_Kill.flac
  Size: 29219708 Hash: A819B45888A4BD2FC1050692CF88524C Accuracy: -m0
  Conclusion: CDDA 100%
  Signature: 1D156D21B669736FCE67A1A1F63AE72AFB1AC931
FILE: 02-A_Beautiful_Lie.flac
  Size: 29290006 Hash: E090277ECB3B896D9CB653421B344E33 Accuracy: -m0
  Conclusion: CDDA 100%
  Signature: 06D5F6195388C69BA38336C003AB85300FB2AE7F
FILE: 01-Attack.flac
  Size: 25334615 Hash: 0B0BC1DE84CB96927C1AA93CF7FCC81D Accuracy: -m0
  Conclusion: CDDA 100%
  Signature: 494357DFDDE30C373535A7590BE1959993EA5F0D
Правила, инструкции, FAQ!!!
Торрент  Добавлен [16 мар 2014, 00:45] Скачать торрент Магнет ссылка
Скачать торрент
[ Размер 17.79 КБ / Просмотров 273 ]

Статус  
 
Размер  721.6 МБ
Приватный: Нет (DHT включён)
.torrent скачан  0
 


     Отправить личное сообщение
   
Страница 1 из 1
Показать сообщения за:  Поле сортировки  
Начать новую тему Ответить на тему


Сейчас этот форум просматривают: нет зарегистрированных пользователей и гости: 0


Вы не можете начинать темы
Вы не можете отвечать на сообщения
Вы не можете редактировать свои сообщения
Вы не можете удалять свои сообщения
Вы не можете добавлять вложения

Перейти:  
cron
cron